Торрент файл
скачать торрент магнет ссылка Добавлен: 17 май 2018, 20:31
Размер: 3.58 ГБ
Сидеров: 0
Личеров: 0
Статус: (salma3)
Автор

СообщениеДобавлено: 17 май 2018, 20:31 

В сети
Супермодератор
Аватара пользователя
Дата регистрации:
15 фев 2012, 16:44
Возраст: 29
Спасибо: 7400 / 2147
Сообщения: 78337
Год выпуска: 2005
Выпущено: США, Team Todd, Ubu Productions, Warner Bros. Pictures Co.
Жанр: Мелодрама, комедия
Режиссер: Гари Дэвид Голдберг

В ролях: Дайан Лэйн, Джон Кьюсак, Элизабет Перкинс, Кристофер Пламмер, Дермот Малруни, Стокард Чэннинг, Али Хиллис, Брэд Хенке, Джули Гонсало, Гленн Хоуертон, Бен Шенкман, Джордана Спиро, Кирк Тратнер, Виктор Уэбстер, Майкл Спаунд, Уилл МакКормак, Тед Гриффин, Мэрилуиз Бёрк, Брэд Холл, Бобби Коулмэн, Эмма Прескотт, Джейден Соренсен

О фильме: Сара Нолан, учительница, которой уже за тридцать, недавно развелась. Теперь ее семья всерьез занялась поисками подходящего ей мужчины. Сестра Сары регистрирует ее в службе он-лайн знакомств, и главным требованием к искомому идеалу пишет "любовь к собакам обязательна". Но, по правде говоря, у Сары нет собаки, поэтому, когда свидание уже назначено, она берет собаку брата и идет в парк на встречу с Джейком Андерсеном... которому тоже пришлось одолжить собаку. Экранизация по произведению Клер Кук.

Продолжительность: 01:37:51
Перевод: Дублированный, профессиональный двухголосый
Субтитры: Русские, английские, финские
Навигация по главам: Есть

Файл
Качество: WEB-DLRip 720p
Видео: MPEG-4 AVC, 4215 Кбит/сек, 1280x532, 23,976 кадра/сек
Аудио #1: AC3, 6 ch, 384 Кбит/сек | Русский, профессиональный (полное дублирование) Мосфильм-Мастер, 2005 год, DVD9
Аудио #2: AC3, 2 ch, 192 Кбит/сек | Русский, профессиональный (двухголосый закадровый)
Аудио #3: AC3, 6 ch, 448 Кбит/сек | Английский, оригинал

x264 [info]: frame I:1150 Avg QP:13.03 size:108601
x264 [info]: frame P:32113 Avg QP:15.56 size: 41709
x264 [info]: frame B:107499 Avg QP:17.08 size: 15137
-----------------------------------------------------
Общее
Уникальный идентификатор : 210320472807767578225415776930028226031 (0x9E3A3FE90CE395F4B1CD3B0BB74685EF)
Полное имя : Любовь.к.собакам.обязательна.2005.WEB-DLRip.720p_KORSAR.mkv
Формат : Matroska
Версия формата : Version 2
Размер файла : 3,58 Гбайт
Продолжительность : 1 ч. 37 м.
Общий поток : 5239 Кбит/сек
Дата кодирования : UTC 2018-05-15 19:47:42
Программа кодирования : mkvmerge v5.8.0 ('No Sleep / Pillow') built on Sep 2 2012 15:37:04
Библиотека кодирования : libebml v1.2.3 + libmatroska v1.3.0
Видео
Идентификатор : 1
Формат : AVC
Формат/Информация : Advanced Video Codec
Профиль формата : High@L4.1
Настройки формата : CABAC / 12 Ref Frames
Параметр CABAC формата : Да
Параметр RefFrames формата : 12 кадров
Идентификатор кодека : V_MPEG4/ISO/AVC
Продолжительность : 1 ч. 37 м.
Битрейт : 4215 Кбит/сек
Ширина : 1280 пикселей
Высота : 532 пикселя
Соотношение сторон : 2,40:1
Режим частоты кадров : Постоянный
Частота кадров : 23,976 (24000/1001) кадра/сек
Цветовое пространство : YUV
Субдискретизация насыщенности : 4:2:0
Битовая глубина : 8 бит
Тип развёртки : Прогрессивная
Бит/(Пиксели*Кадры) : 0.258
Размер потока : 2,81 Гбайт (78%)
Заголовок : RIP | MZMA
Библиотека кодирования : x264 core 152 r2851kMod ba24899
Настройки программы : cabac=1 / ref=12 / deblock=1:-3:-3 / analyse=0x3:0x113 / me=umh / subme=11 / psy=1 / fade_compensate=0.00 / psy_rd=1.00:0.00 / mixed_ref=1 / me_range=48 / chroma_me=1 / trellis=2 / 8x8dct=1 / cqm=0 / deadzone=21,11 / fast_pskip=0 / chroma_qp_offset=-2 / threads=6 / lookahead_threads=1 / sliced_threads=0 / nr=0 / decimate=0 / interlaced=0 / bluray_compat=0 / constrained_intra=0 / bframes=16 / b_pyramid=2 / b_adapt=2 / b_bias=0 / direct=3 / weightb=1 / open_gop=0 / weightp=2 / keyint=240 / keyint_min=23 / scenecut=40 / intra_refresh=0 / rc_lookahead=40 / rc=2pass / mbtree=0 / bitrate=4215 / ratetol=1.0 / qcomp=0.60 / qpmin=0 / qpmax=69 / qpstep=4 / cplxblur=20.0 / qblur=0.5 / vbv_maxrate=50000 / vbv_bufsize=62500 / nal_hrd=none / filler=0 / ip_ratio=1.40 / pb_ratio=1.30 / aq=3:0.90
Язык : English
Default : Да
Forced : Нет
Цветовой диапазон : Limited
Основные цвета : BT.709
Характеристики трансфера : BT.709
Коэффициенты матрицы : BT.709
Аудио #1
Идентификатор : 2
Формат : AC-3
Формат/Информация : Audio Coding 3
Идентификатор кодека : A_AC3
Продолжительность : 1 ч. 37 м.
Вид битрейта : Постоянный
Битрейт : 384 Кбит/сек
Каналы : 6 каналов
Расположение каналов : Front: L C R, Side: L R, LFE
Частота : 48,0 КГц
Частота кадров : 31,250 кадров/сек (1536 SPF)
Битовая глубина : 16 бит
Метод сжатия : С потерями
Размер потока : 269 Мбайт (7%)
Заголовок : DUB | Мосфильм-Мастер
Язык : Russian
По умолчанию : Да
Принудительно : Нет
Аудио #2
Идентификатор : 3
Формат : AC-3
Формат/Информация : Audio Coding 3
Идентификатор кодека : A_AC3
Продолжительность : 1 ч. 37 м.
Вид битрейта : Постоянный
Битрейт : 192 Кбит/сек
Каналы : 2 канала
Расположение каналов : Front: L R
Частота : 48,0 КГц
Частота кадров : 31,250 кадров/сек (1536 SPF)
Битовая глубина : 16 бит
Метод сжатия : С потерями
Размер потока : 134 Мбайт (4%)
Заголовок : DVO
Язык : Russian
По умолчанию : Нет
Принудительно : Нет
Аудио #3
Идентификатор : 4
Формат : AC-3
Формат/Информация : Audio Coding 3
Идентификатор кодека : A_AC3
Продолжительность : 1 ч. 37 м.
Вид битрейта : Постоянный
Битрейт : 448 Кбит/сек
Каналы : 6 каналов
Расположение каналов : Front: L C R, Side: L R, LFE
Частота : 48,0 КГц
Частота кадров : 31,250 кадров/сек (1536 SPF)
Битовая глубина : 16 бит
Метод сжатия : С потерями
Размер потока : 314 Мбайт (9%)
Заголовок : Original
Язык : English
По умолчанию : Нет
Принудительно : Нет
Текст #1
Идентификатор : 5
Формат : UTF-8
Идентификатор кодека : S_TEXT/UTF8
Идентификатор кодека/Информация : UTF-8 Plain Text
Заголовок : Forced
Язык : Russian
По умолчанию : Да
Принудительно : Нет
Текст #2
Идентификатор : 6
Формат : UTF-8
Идентификатор кодека : S_TEXT/UTF8
Идентификатор кодека/Информация : UTF-8 Plain Text
Заголовок : Full
Язык : Russian
По умолчанию : Нет
Принудительно : Нет
Текст #3
Идентификатор : 7
Формат : UTF-8
Идентификатор кодека : S_TEXT/UTF8
Идентификатор кодека/Информация : UTF-8 Plain Text
Заголовок : Full
Язык : English
По умолчанию : Нет
Принудительно : Нет
Текст #4
Идентификатор : 8
Формат : UTF-8
Идентификатор кодека : S_TEXT/UTF8
Идентификатор кодека/Информация : UTF-8 Plain Text
Заголовок : SDH
Язык : English
По умолчанию : Нет
Принудительно : Нет
Текст #5
Идентификатор : 9
Формат : UTF-8
Идентификатор кодека : S_TEXT/UTF8
Идентификатор кодека/Информация : UTF-8 Plain Text
Заголовок : Full
Язык : Finnish
По умолчанию : Нет
Принудительно : Нет
Меню
00:00:00.000 : en:Credits
00:02:04.624 : en:Divorced Duo
00:05:51.184 : en:Benched
00:10:20.953 : en:Mr. Incorrigible
00:14:00.089 : en:My Dad's Date
00:18:30.901 : en:On Offense on the Web
00:22:01.528 : en:Short Attention Spans
00:25:48.964 : en:Dog Park Rendezvous
00:29:59.756 : en:Hello, Dolly - and Bobby
00:33:26.671 : en:Happy Singalong
00:36:56.631 : en:Second Shots
00:40:11.283 : en:Everybody Except Us
00:45:57.463 : en:Date Reports
00:51:11.401 : en:Brown Penny
00:54:23.218 : en:Never Ready
00:57:25.442 : en:Just Friends
01:02:10.727 : en:Too Many Men
01:07:34.633 : en:Pole and Tap Dancing
01:12:54.578 : en:Guys Like You
01:18:30.997 : en:Cheer Me Up
01:21:30.969 : en:Not Quite Zhivago
01:26:29.767 : en:Nice Turn of Phrase
01:29:39.832 : en:Today's Special
01:33:29.979 : en:End Credits

• Исходник видео WEB-DL Amazon.
• Субтитры:
1. Русские - форсированные, на надписи, на армянскую речь и небольшой комментарий в финальных титрах.
2. Русские - полные.
3. Английские - полные.
4. Английские - для слабослышащих (SDH).
5. Финские - полные.
Английские - вшитые, хардсаб, неотключаемые, на армянскую речь и небольшой комментарий в финальных титрах.

Релиз от:


_________________
Проголосуй за трекер Открытый торрент трекер - RUS-MEDIA.ORG

Проголосуй Открытый торрент трекер - RUS-MEDIA.ORG


Вернуться к началу
 Профиль Отправить личное сообщение  
 
   Похожие торренты   Автор   Торрент   Размер 
В этой теме нет новых непрочитанных сообщений. Любовь к собакам обязательна / Must Love Dogs [мелодрама, комедия, 2005] WEB-DL 1080p, Dub

salma3

25 | 21

5.39 ГБ

В этой теме нет новых непрочитанных сообщений. Любовь к собакам обязательна / Must Love Dogs [мелодрама, комедия, 2005] WEB-DL 1080p, Dub

salma3

0 | 0

5.39 ГБ

В этой теме нет новых непрочитанных сообщений. Любовь к собакам обязательна / Must Love Dogs [комедия, мелодрама, 2005] WEB-DL 1080p, Dub

salma3

0 | 0

5.25 ГБ

В этой теме нет новых непрочитанных сообщений. Мектуб, моя любовь / Mektoub, My Love: Canto Uno [мелодрама, комедия, 2017] WEB-DLRip, Mvo

salma3

81 | 44

2.05 ГБ

В этой теме нет новых непрочитанных сообщений. Реальная любовь / Love Actually [драма, мелодрама, комедия, 2003] BDRip 720p, Dub

salma3

2 | 1

7.76 ГБ

В этой теме нет новых непрочитанных сообщений. Любовь, сбивающая с ног / Punch-Drunk Love [триллер, драма, мелодрама, комедия, 2002] BDRip 720p, Dvo

salma3

0 | 0

5.71 ГБ

В этой теме нет новых непрочитанных сообщений. Дикая любовь / Mad Love [драма, мелодрама, 1995] WEB-DLRip, Avo

salma3

29 | 5

1.37 ГБ


Начать новую тему Ответить на тему  [ 1 сообщение ] 




Для Мосгорсуда, Роскомнадзора и рекламодателей:: mosgorsud-torrent[собачка]yandex.ru
cron