Торрент файл
скачать торрент магнет ссылка Добавлен: 04 июн 2018, 10:55
Размер: 8.62 ГБ
Сидеров: 6
Личеров: 2
Статус: (salma3)
Автор

СообщениеДобавлено: 04 июн 2018, 10:55 

Не в сети
Супермодератор
Аватара пользователя
Дата регистрации:
15 фев 2012, 16:44
Возраст: 29
Спасибо: 7400 / 2147
Сообщения: 78350
Год выхода: 1989
Страна: США
Продолжительность: 01:27:02
Жанр: ужасы, фантастика, боевик
Режиссер: Джим Уайнорски

В ролях: Луи Журдан, Хэзер Локлир, Сара Дуглас, Дик Дурок, Джо Сагал, Эйс Маск, Моник Габриэль, РонРико Ли, Дэниэл Эмери Тейлор, Ральф Пейс, ...

Перевод:
- Авторский (одноголосый, закадровый) Иванов Михаил Николаевич
- Авторский (одноголосый, закадровый) Дохалов Вартан Карлович
- Любительский (одноголосый, закадровый) ? женский голос
- Любительский (одноголосый, закадровый) Ужастик
- Любительский (одноголосый, закадровый) ?

О фильме: Прекрасная Абигэйл приезжает в лабораторию своего отчима доктора Аркейна, чтобы узнать тайну смерти ее матери. К сожалению, Аркейн склонен лишить ее жизни для создания своей формулы бессмертия. На помощь Абигэйл приходит бывший доктор Холланд (а ныне болотное чудовище) и уносит ее в болото, где они вскоре безумно влюбляются друг в друга. Но их роман ставится под вопрос, когда Аркейн начинает охоту на эту странную парочку с целым арсеналом оружия…



Кодек: x264
Качество: BDRip 1080p
Видео: 1920x1036, 13000 kbps, 24 fps
Аудио #1: AC-3, 2 ch, 192 kbps (Rus) - AVO Иванов Михаил Николаевич
Аудио #2: AC-3, 2 ch, 192 kbps (Rus) - AVO Дохалов Вартан Карлович
Аудио #3: AC-3, 2 ch, 192 kbps (Rus) - VO женский голос
Аудио #4: AC-3, 1 ch, 192 kbps (Rus) - VO Ужастик
Аудио #5: AC-3, 2 ch, 192 kbps (Rus) - VO
Аудио #6: AC-3, 2 ch, 224 kbps (Eng)
Субтитры: английские

x264 [info]: frame I:773 Avg QP:18.09 size:214206
x264 [info]: frame P:26143 Avg QP:20.39 size:111192
x264 [info]: frame B:98423 Avg QP:22.41 size: 54959
x264 [info]: consecutive B-frames: 1.8% 2.5% 5.5% 16.8% 18.9% 40.9% 9.2% 2.1% 1.5% 0.5% 0.2% 0.1% 0.2%
Общее
Уникальный идентификатор : 220655882360063706271205672259015214337 (0xA600C6F19D4A4F7BA9966B39F9DD0501)
Полное имя : C:TorrentВозвращение болотной твари (The Return of Swamp Thing) 1989 BDRip 1080р.mkv
Формат : Matroska
Версия формата : Version 2
Размер файла : 8,62 Гбайт
Продолжительность : 1 ч. 27 м.
Общий поток : 14,2 Мбит/сек
Дата кодирования : UTC 2018-06-03 17:43:35
Программа кодирования : mkvmerge v4.0.0 ('The Stars were mine') сборка от Jun 6 2010 16:18:42
Библиотека кодирования : libebml v1.0.0 + libmatroska v1.0.0

Видео
Идентификатор : 1
Формат : AVC
Формат/Информация : Advanced Video Codec
Профиль формата : High@L4.1
Параметр CABAC формата : Да
Параметр ReFrames формата : 4 кадра
Идентификатор кодека : V_MPEG4/ISO/AVC
Продолжительность : 1 ч. 27 м.
Битрейт : 13,0 Мбит/сек
Ширина : 1920 пикселей
Высота : 1036 пикселей
Соотношение сторон : 1,85:1
Режим частоты кадров : Постоянный
Частота кадров : 24,000 кадра/сек
Цветовое пространство : YUV
Субдискретизация насыщенности : 4:2:0
Битовая глубина : 8 бит
Тип развёртки : Прогрессивная
Бит/(Пиксели*Кадры) : 0.272
Размер потока : 7,73 Гбайт (90%)
Библиотека кодирования : x264 core 146 r2538 121396c
Настройки программы : cabac=1 / ref=4 / deblock=1:-3:-3 / analyse=0x3:0x133 / me=umh / subme=11 / psy=1 / psy_rd=1.00:0.00 / mixed_ref=1 / me_range=32 / chroma_me=1 / trellis=2 / 8x8dct=1 / cqm=0 / deadzone=21,11 / fast_pskip=0 / chroma_qp_offset=-2 / threads=12 / lookahead_threads=2 / sliced_threads=0 / nr=0 / decimate=0 / interlaced=0 / bluray_compat=0 / constrained_intra=0 / bframes=12 / b_pyramid=2 / b_adapt=2 / b_bias=0 / direct=3 / weightb=1 / open_gop=0 / weightp=2 / keyint=240 / keyint_min=24 / scenecut=40 / intra_refresh=0 / rc_lookahead=60 / rc=2pass / mbtree=0 / bitrate=13000 / ratetol=1.0 / qcomp=0.60 / qpmin=0 / qpmax=69 / qpstep=4 / cplxblur=20.0 / qblur=0.5 / vbv_maxrate=50000 / vbv_bufsize=62500 / nal_hrd=none / filler=0 / ip_ratio=1.40 / pb_ratio=1.30 / aq=1:0.80
Язык : English
Default : Нет
Forced : Нет

Аудио #1
Идентификатор : 2
Формат : AC-3
Формат/Информация : Audio Coding 3
Расширение режима : CM (complete main)
Параметр Endianness формата : Big
Идентификатор кодека : A_AC3
Продолжительность : 1 ч. 27 м.
Вид битрейта : Постоянный
Битрейт : 192 Кбит/сек
Каналы : 2 канала
Расположение каналов : Front: L R
Частота : 48,0 КГц
Частота кадров : 31,250 кадров/сек (1536 spf)
Метод сжатия : С потерями
Размер потока : 120 Мбайт (1%)
Заголовок : AVO Иванов Михаил Николаевич
Язык : Russian
Default : Нет
Forced : Нет

Аудио #2
Идентификатор : 3
Формат : AC-3
Формат/Информация : Audio Coding 3
Расширение режима : CM (complete main)
Параметр Endianness формата : Big
Идентификатор кодека : A_AC3
Продолжительность : 1 ч. 27 м.
Вид битрейта : Постоянный
Битрейт : 192 Кбит/сек
Каналы : 2 канала
Расположение каналов : Front: L R
Частота : 48,0 КГц
Частота кадров : 31,250 кадров/сек (1536 spf)
Метод сжатия : С потерями
Размер потока : 120 Мбайт (1%)
Заголовок : AVO Дохалов Вартан Карлович
Язык : Russian
Default : Нет
Forced : Нет

Аудио #3
Идентификатор : 4
Формат : AC-3
Формат/Информация : Audio Coding 3
Расширение режима : CM (complete main)
Параметр Endianness формата : Big
Идентификатор кодека : A_AC3
Продолжительность : 1 ч. 27 м.
Вид битрейта : Постоянный
Битрейт : 192 Кбит/сек
Каналы : 2 канала
Расположение каналов : Front: L R
Частота : 48,0 КГц
Частота кадров : 31,250 кадров/сек (1536 spf)
Метод сжатия : С потерями
Размер потока : 120 Мбайт (1%)
Заголовок : VO женский голос
Язык : Russian
Default : Нет
Forced : Нет

Аудио #4
Идентификатор : 5
Формат : AC-3
Формат/Информация : Audio Coding 3
Расширение режима : CM (complete main)
Параметр Endianness формата : Big
Идентификатор кодека : A_AC3
Продолжительность : 1 ч. 27 м.
Вид битрейта : Постоянный
Битрейт : 192 Кбит/сек
Каналы : 1 канал
Расположение каналов : Front: C
Частота : 48,0 КГц
Частота кадров : 31,250 кадров/сек (1536 spf)
Метод сжатия : С потерями
Размер потока : 120 Мбайт (1%)
Заголовок : VO Ужастик
Язык : Russian
Default : Нет
Forced : Нет

Аудио #5
Идентификатор : 6
Формат : AC-3
Формат/Информация : Audio Coding 3
Расширение режима : CM (complete main)
Параметр Endianness формата : Big
Идентификатор кодека : A_AC3
Продолжительность : 1 ч. 27 м.
Вид битрейта : Постоянный
Битрейт : 192 Кбит/сек
Каналы : 2 канала
Расположение каналов : Front: L R
Частота : 48,0 КГц
Частота кадров : 31,250 кадров/сек (1536 spf)
Метод сжатия : С потерями
Размер потока : 120 Мбайт (1%)
Заголовок : VO
Язык : Russian
Default : Нет
Forced : Нет

Аудио #6
Идентификатор : 7
Формат : AC-3
Формат/Информация : Audio Coding 3
Расширение режима : CM (complete main)
Параметр Endianness формата : Big
Идентификатор кодека : A_AC3
Продолжительность : 1 ч. 27 м.
Вид битрейта : Постоянный
Битрейт : 224 Кбит/сек
Каналы : 2 канала
Расположение каналов : Front: L R
Частота : 48,0 КГц
Частота кадров : 31,250 кадров/сек (1536 spf)
Метод сжатия : С потерями
Размер потока : 139 Мбайт (2%)
Язык : English
Default : Нет
Forced : Нет

Текст #1
Идентификатор : 8
Формат : UTF-8
Идентификатор кодека : S_TEXT/UTF8
Идентификатор кодека/Информация : UTF-8 Plain Text
Язык : English
Default : Нет
Forced : Нет

Текст #2
Идентификатор : 9
Формат : UTF-8
Идентификатор кодека : S_TEXT/UTF8
Идентификатор кодека/Информация : UTF-8 Plain Text
Заголовок : SDH
Язык : English
Default : Нет
Forced : Нет



_________________
Проголосуй за трекер Открытый торрент трекер - RUS-MEDIA.ORG

Проголосуй Открытый торрент трекер - RUS-MEDIA.ORG


Вернуться к началу
 Профиль Отправить личное сообщение  
 
   Похожие торренты   Автор   Торрент   Размер 
В этой теме нет новых непрочитанных сообщений. Возвращение болотной твари / The Return of Swamp Thing [ужасы, фантастика, боевик, 1989] BDRemux 1080р, Avo+Sub

salma3

8 | 6

13.62 ГБ

В этой теме нет новых непрочитанных сообщений. Возвращение болотной твари / The Return of Swamp Thing [ужасы, фантастика, боевик, 1989] BDRip-AVC, Avo

salma3

32 | 11

745.74 МБ

В этой теме нет новых непрочитанных сообщений. Возвращение помидоров-убийц / Return of the Killer Tomatoes! [ужасы, фантастика, комедия, 1988] BDRemux 1080р, Mvo

salma3

14 | 11

23.14 ГБ

В этой теме нет новых непрочитанных сообщений. Возвращение помидоров-убийц / Return of the Killer Tomatoes [Комедия, фантастика, ужасы, 1988] BDRip-AVC, Dvo

salma3

2 | 1

2.03 ГБ

В этой теме нет новых непрочитанных сообщений. Возвращение помидоров-убийц / Return of the Killer Tomatoes [ужасы, фантастика, комедия, 1988] BDRip, Dvo

salma3

3 | 0

1.45 ГБ

В этой теме нет новых непрочитанных сообщений. Нечто / The Thing [Ужасы, фантастика, триллер, 2011] BDRemux 1080р, Dub

salma3

7 | 5

35.32 ГБ

В этой теме нет новых непрочитанных сообщений. Месть / Возвращение / The Return [ужасы, триллер, детектив, 2010] BDRip-AVC, Dub

salma3

215 | 33

745.6 МБ


Начать новую тему Ответить на тему  [ 1 сообщение ] 




Для Мосгорсуда, Роскомнадзора и рекламодателей:: mosgorsud-torrent[собачка]yandex.ru
cron