Торрент файл
скачать торрент магнет ссылка Добавлен: 16 июл 2018, 16:47
Размер: 7.96 ГБ
Сидеров: 0
Личеров: 0
Статус: (salma3)
Автор

СообщениеДобавлено: 16 июл 2018, 16:47 

Не в сети
Супермодератор
Аватара пользователя
Дата регистрации:
15 фев 2012, 16:44
Возраст: 29
Спасибо: 7401 / 2147
Сообщения: 78490
Год выхода: 2016
Жанр: Ужасы, драма
Режиссер: Лайам Гэвин

В ролях: Марк Хубермэн, Катрин Уолкер, Стив Орам, Сьюзэн Лунейн, Натан Вос, Мартина Нанварова, Бреффни О'Коннор, Шейла Молони

О фильме:
В надежде вновь увидеть своего похищенного и убитого три года назад сына Джека женщина по имени София решает провести весьма сложный каббалистический ритуал — с помощью Книги Абрамелина вызвать своего ангела-хранителя и поговорить с Джеком. Она арендует старый особняк в глуши Уэльса и с трудом убеждает специалиста по подобным обрядам Джозефа Соломона помочь ей. Вместе они запираются в доме на семь месяцев; Соломон запечатывает его кругом из соли, предупредив Софию, чтобы она ни в коем случае не переступала круг до завершения ритуала. За это время женщина испытает массу страданий. Порой ей придётся не двигаться с места целый день и пить человеческую кровь. Невзирая на все ужасы, София готова идти до конца.



Страна: Ирландия, Великобритания
Продолжительность: 01:39:55
Перевод: Авторский (Андрей Дольский)

Файл
Кодек: x264
Качество: BDRip 1080p
Видео: MPEG-4 AVC, 9454 Kбит/с, 1920x808
Звук #1: AC3, 6 ch, 448 Кбит/с | Русский
Звук #2: DTS, 6 ch, 1536 Кбит/с | Английский
Субтитры: Русские, английские


Формат : Matroska
Версия формата : Version 2
Размер файла : 7,96 Гбайт
Продолжительность : 1 ч. 39 м.
Общий поток : 11,4 Мбит/сек
Название фильма : A.Dark.Song.2016.1080p.BluRay.by.zzZGVvv
Дата кодирования : UTC 2018-07-16 09:26:50
Программа кодирования : mkvmerge v5.8.0 ('No Sleep / Pillow') built on Sep 2 2012 15:37:04
Библиотека кодирования : libebml v1.2.3 + libmatroska v1.3.0
Attachements : cover.jpg

Видео
Идентификатор : 1
Формат : AVC
Формат/Информация : Advanced Video Codec
Профиль формата : High@L4.1
Параметр CABAC формата : Да
Параметр ReFrames формата : 5 кадров
Идентификатор кодека : V_MPEG4/ISO/AVC
Продолжительность : 1 ч. 39 м.
Битрейт : 9454 Кбит/сек
Ширина : 1920 пикселей
Высота : 808 пикселей
Соотношение сторон : 2,40:1
Режим частоты кадров : Постоянный
Частота кадров : 23,976 кадра/сек
Цветовое пространство : YUV
Субдискретизация насыщенности : 4:2:0
Битовая глубина : 8 бит
Тип развёртки : Прогрессивная
Бит/(Пиксели*Кадры) : 0.254
Размер потока : 6,44 Гбайт (81%)
Заголовок : A.Dark.Song.2016.1080p.BluRay
Библиотека кодирования : x264 core 152 r2851 ba24899
Настройки программы : cabac=1 / ref=5 / deblock=1:0:0 / analyse=0x3:0x133 / me=umh / subme=7 / psy=1 / psy_rd=1.00:0.00 / mixed_ref=1 / me_range=16 / chroma_me=1 / trellis=1 / 8x8dct=1 / cqm=0 / deadzone=21,11 / fast_pskip=0 / chroma_qp_offset=-2 / threads=24 / lookahead_threads=4 / sliced_threads=0 / nr=0 / decimate=1 / interlaced=0 / bluray_compat=0 / constrained_intra=0 / bframes=3 / b_pyramid=2 / b_adapt=1 / b_bias=0 / direct=1 / weightb=1 / open_gop=0 / weightp=2 / keyint=250 / keyint_min=23 / scenecut=40 / intra_refresh=0 / rc_lookahead=40 / rc=2pass / mbtree=1 / bitrate=9454 / ratetol=1.0 / qcomp=0.60 / qpmin=0 / qpmax=69 / qpstep=4 / cplxblur=20.0 / qblur=0.5 / ip_ratio=1.40 / aq=1:1.00
Язык : English
Default : Да
Forced : Нет

Аудио #1
Идентификатор : 2
Формат : AC-3
Формат/Информация : Audio Coding 3
Расширение режима : CM (complete main)
Параметр Endianness формата : Big
Идентификатор кодека : A_AC3
Продолжительность : 1 ч. 39 м.
Вид битрейта : Постоянный
Битрейт : 448 Кбит/сек
Каналы : 6 каналов
Расположение каналов : Front: L C R, Side: L R, LFE
Частота : 48,0 КГц
Метод сжатия : С потерями
Размер потока : 320 Мбайт (4%)
Заголовок : AVO (Андрей Дольский)
Язык : Russian
Default : Да
Forced : Нет

Аудио #2
Идентификатор : 3
Формат : DTS
Формат/Информация : Digital Theater Systems
Режим : 16
Параметр Endianness формата : Big
Идентификатор кодека : A_DTS
Продолжительность : 1 ч. 39 м.
Вид битрейта : Постоянный
Битрейт : 1509 Кбит/сек
Каналы : 6 каналов
Расположение каналов : Front: L C R, Side: L R, LFE
Частота : 48,0 КГц
Битовая глубина : 24 бит
Метод сжатия : С потерями
Размер потока : 1,05 Гбайт (13%)
Язык : English
Default : Нет
Forced : Нет

Текст #1
Идентификатор : 4
Формат : UTF-8
Идентификатор кодека : S_TEXT/UTF8
Идентификатор кодека/Информация : UTF-8 Plain Text
Язык : Russian
Default : Нет
Forced : Нет

Текст #2
Идентификатор : 5
Формат : UTF-8
Идентификатор кодека : S_TEXT/UTF8
Идентификатор кодека/Информация : UTF-8 Plain Text
Язык : English
Default : Нет
Forced : Нет

Меню
00:00:00.000 : en:00:00:00.000
00:07:45.840 : en:00:07:45.840
00:17:37.556 : en:00:17:37.556
00:25:53.761 : en:00:25:53.761
00:33:49.069 : en:00:33:49.069
00:41:46.587 : en:00:41:46.587
00:51:46.645 : en:00:51:46.645
01:02:51.351 : en:01:02:51.351
01:13:04.213 : en:01:13:04.213
01:23:08.442 : en:01:23:08.442
01:27:17.441 : en:01:27:17.441
01:36:15.645 : en:01:36:15.645



_________________
Проголосуй за трекер Открытый торрент трекер - RUS-MEDIA.ORG

Проголосуй Открытый торрент трекер - RUS-MEDIA.ORG


Вернуться к началу
 Профиль Отправить личное сообщение  
 
   Похожие торренты   Автор   Торрент   Размер 
В этой теме нет новых непрочитанных сообщений. Песнь тьмы / A Dark Song [ужасы, драма, 2016] WEB-DLRip, Mvo

salma3

436 | 93

1.37 ГБ

В этой теме нет новых непрочитанных сообщений. Песнь тьмы / A Dark Song [ужасы, драма, 2016] WEB-DLRip 720p, Mvo

salma3

846 | 85

3.16 ГБ

В этой теме нет новых непрочитанных сообщений. Песнь заката / Sunset Song [Драма, экранизация, 2015] HDTVRip 1080p, Dub

salma3

11 | 5

7.15 ГБ

В этой теме нет новых непрочитанных сообщений. Ангел тьмы / Dark Angel [ужасы, фантастика, боевик, 1990] BDRip-HEVC 1080p, Mvo

salma3

0 | 0

8.8 ГБ

В этой теме нет новых непрочитанных сообщений. Эльвира - Повелительница тьмы / Elvira: Mistress of the Dark [Комедия, ужасы, мистика, 1988] BDRip 1080p, Mvo

salma3

0 | 0

9.7 ГБ

В этой теме нет новых непрочитанных сообщений. Из тьмы / Out of the Dark [Ужасы, триллер, 1989] WEB-DL 1080p, Avo

salma3

0 | 1

9.02 ГБ

В этой теме нет новых непрочитанных сообщений. Песнь заката / Sunset Song [драма, 2015] HDRip. Dub

salma3

86 | 7

1.46 ГБ


Начать новую тему Ответить на тему  [ 1 сообщение ] 




Для Мосгорсуда, Роскомнадзора и рекламодателей:: mosgorsud-torrent[собачка]yandex.ru
cron