Торрент файл
скачать торрент магнет ссылка Добавлен: 18 авг 2018, 12:12
Размер: 50.06 ГБ
Сидеров: 0
Личеров: 0
Статус: (salma3)
Автор

СообщениеДобавлено: 18 авг 2018, 12:12 

Не в сети
Супермодератор
Аватара пользователя
Дата регистрации:
15 фев 2012, 16:44
Возраст: 29
Спасибо: 7400 / 2147
Сообщения: 78352
Год выхода: 2002
Жанр: Комедия, мелодрама
Режиссер: Уолт Бекер

В ролях: Райан Рейнольдс, Тара Рейд, Тим Мэтисон, Кэл Пенн, Тек Холмс, Дэниэл Косгров, Дион Ричмонд, Алекс Барнс, Эмили Рутерферд, Пол Глисон, Эрик Эстрада, Кёртис Армстронг

О фильме:
Вэн Уайлдер учится в колледже уже шесть лет, и все никак не может получить диплом. Но вовсе не из-за того, что он самый тупой ученик в группе, а потому что без ума влюблен в беззаботную студенческую жизнь. К своему ужасу он узнает, что отец не намерен оплачивать затянувшуюся учебу своего отпрыска, и теперь у него всего два варианта: либо самостоятельно заплатить за седьмой год веселья, либо… стать, в конце концов, выпускником!



Страна: США, Германия
Продолжительность: 01:33:52
Перевод: Профессиональный многоголосый, профессиональный двухголосый, авторский

Файл
Кодек: H.265
Качество: BDRemux 2160p
Видео: HEVC HDR, 70.4 Mбит/с, 3840x2160, 23.976 кадр/с
Звук:
Русский (AC3, 6 ch, 384 Кбит/с) / Профессиональный многоголосый
Русский (AC3, 6 ch, 384 Кбит/с) / Профессиональный двухголосый (Пирамида)
Русский (AC3, 6 ch, 384 Кбит/с) / Авторский (Рудой)
Английский (TrueHD+Atmos, 8 ch, 4253 Кбит/с)
Английский (AC3, 6 ch, 448 Кбит/с)
Субтитры: Русские, английские

Семпл

General
Unique ID : 273094063881907678192221816543393954619 (0xCD7400E71C20106BC36347A74C0D3B3B)
Complete name : D:uTorrentVan.Wilder.2002.BDRemux.2160p.HDR.MediaClub.mkv
Format : Matroska
Format version : Version 4 / Version 2
File size : 50.1 GiB
Duration : 1 h 33 min
Overall bit rate mode : Variable
Overall bit rate : 76.3 Mb/s
Encoded date : UTC 2018-08-18 00:17:41
Writing application : mkvmerge v25.0.0 ('Prog Noir') 64-bit
Writing library : libebml v1.3.6 + libmatroska v1.4.9
Cover : Yes
Attachments : cover.jpg

Video
ID : 1
Format : HEVC
Format/Info : High Efficiency Video Coding
Commercial name : HDR10
Format profile : Main 10@L5.1@High
Codec ID : V_MPEGH/ISO/HEVC
Duration : 1 h 33 min
Bit rate : 70.4 Mb/s
Width : 3 840 pixels
Height : 2 160 pixels
Display aspect ratio : 16:9
Frame rate mode : Constant
Frame rate : 23.976 (24000/1001) FPS
Color space : YUV
Chroma subsampling : 4:2:0 (Type 2)
Bit depth : 10 bits
Bits/(Pixel*Frame) : 0.354
Stream size : 46.1 GiB (92%)
Title : BDRemux.2160p.HDR by Silverok
Default : Yes
Forced : No
Color range : Limited
Color primaries : BT.2020
Transfer characteristics : PQ
Matrix coefficients : BT.2020 non-constant
Mastering display color primaries : Display P3
Mastering display luminance : min: 0.0050 cd/m2, max: 1000 cd/m2
Maximum Content Light Level : 1000 cd/m2
Maximum Frame-Average Light Level : 829 cd/m2

Audio #1
ID : 2
Format : AC-3
Format/Info : Audio Coding 3
Codec ID : A_AC3
Duration : 1 h 33 min
Bit rate mode : Constant
Bit rate : 384 kb/s
Channel(s) : 6 channels
Channel positions : Front: L C R, Side: L R, LFE
Sampling rate : 48.0 kHz
Frame rate : 31.250 FPS (1536 SPF)
Bit depth : 16 bits
Compression mode : Lossy
Stream size : 258 MiB (1%)
Title : Профессиональный (многоголосый, закадровый)
Language : Russian
Service kind : Complete Main
Default : Yes
Forced : No

Audio #2
ID : 3
Format : AC-3
Format/Info : Audio Coding 3
Codec ID : A_AC3
Duration : 1 h 33 min
Bit rate mode : Constant
Bit rate : 448 kb/s
Channel(s) : 6 channels
Channel positions : Front: L C R, Side: L R, LFE
Sampling rate : 48.0 kHz
Frame rate : 31.250 FPS (1536 SPF)
Bit depth : 16 bits
Compression mode : Lossy
Stream size : 301 MiB (1%)
Title : Профессиональный двухголосый (Пирамида)
Language : Russian
Service kind : Complete Main
Default : No
Forced : No

Audio #3
ID : 4
Format : AC-3
Format/Info : Audio Coding 3
Codec ID : A_AC3
Duration : 1 h 33 min
Bit rate mode : Constant
Bit rate : 384 kb/s
Channel(s) : 6 channels
Channel positions : Front: L C R, Side: L R, LFE
Sampling rate : 48.0 kHz
Frame rate : 31.250 FPS (1536 SPF)
Bit depth : 16 bits
Compression mode : Lossy
Stream size : 258 MiB (1%)
Title : Авторский (Рудой)
Language : Russian
Service kind : Complete Main
Default : No
Forced : No

Audio #4
ID : 5
Format : TrueHD
Format profile : TrueHD+Atmos / TrueHD
Codec ID : A_TRUEHD
Duration : 1 h 33 min
Bit rate mode : Variable
Bit rate : 4 253 kb/s
Maximum bit rate : 6 540 kb/s
Channel(s) : Object Based / 8 channels
Channel positions : Object Based / Front: L C R, Side: L R, Back: L R, LFE
Sampling rate : / 48.0 kHz
Frame rate : 1 200.000 FPS (40 SPF)
Compression mode : Lossless
Stream size : 2.79 GiB (6%)
Language : English
Default : No
Forced : No

Audio #5
ID : 6
Format : AC-3
Format/Info : Audio Coding 3
Codec ID : A_AC3
Duration : 1 h 33 min
Bit rate mode : Constant
Bit rate : 448 kb/s
Channel(s) : 6 channels
Channel positions : Front: L C R, Side: L R, LFE
Sampling rate : 48.0 kHz
Frame rate : 31.250 FPS (1536 SPF)
Bit depth : 16 bits
Compression mode : Lossy
Stream size : 301 MiB (1%)
Language : English
Service kind : Complete Main
Default : No
Forced : No

Text #1
ID : 7
Format : UTF-8
Codec ID : S_TEXT/UTF8
Codec ID/Info : UTF-8 Plain Text
Duration : 1 h 30 min
Bit rate : 135 b/s
Count of elements : 1174
Stream size : 89.8 KiB (0%)
Title : Full
Language : Russian
Default : Yes
Forced : No

Text #2
ID : 8
Format : UTF-8
Codec ID : S_TEXT/UTF8
Codec ID/Info : UTF-8 Plain Text
Duration : 1 h 30 min
Bit rate : 72 b/s
Count of elements : 1277
Stream size : 47.9 KiB (0%)
Title : Full
Language : English
Default : No
Forced : No

Menu
00:00:00.000 : en:Assistant Auditions
00:06:35.395 : en:Foreign Option
00:09:31.028 : en:Hot New Story
00:15:42.358 : en:Extension Program
00:18:56.969 : en:Topless Tutor
00:24:56.161 : en:Roller Party
00:29:00.739 : en:Spreading the News
00:34:35.823 : en:Ice Princess
00:41:14.138 : en:Dinner Invite
00:45:24.096 : en:Fooling Around
00:49:04.900 : en:All Beef Franks
00:53:26.286 : en:Save the Swim Team
01:03:08.367 : en:Party Crashers
01:08:04.830 : en:Wilder Days
01:12:39.438 : en:Van Appeal
01:21:42.105 : en:Van the Man


Релиз от: | Silverok


_________________
Проголосуй за трекер Открытый торрент трекер - RUS-MEDIA.ORG

Проголосуй Открытый торрент трекер - RUS-MEDIA.ORG


Вернуться к началу
 Профиль Отправить личное сообщение  
 
   Похожие торренты   Автор   Торрент   Размер 
В этой теме нет новых непрочитанных сообщений. Люди в чёрном 2 / Men in Black II [Фантастика, боевик, комедия, 2002] UHD BDRemux 2160p, Dub [4K]

salma3

7 | 3

44.51 ГБ

В этой теме нет новых непрочитанных сообщений. Идеальный голос / Pitch Perfect [Мелодрама, комедия, музыка, 2012] BDRemux 2160p, Dub [4K] [Лицензия]

salma3

0 | 0

52.33 ГБ

В этой теме нет новых непрочитанных сообщений. С любовью, Саймон / Love, Simon [Драма, мелодрама, комедия, 2018] UHD BDRemux 2160p, Mvo [iTunes]

salma3

8 | 9

53.2 ГБ

В этой теме нет новых непрочитанных сообщений. Госпожа горничная / Maid in Manhattan [Мелодрама, комедия, драма, 2002] BDRemux 1080p, Dub

salma3

2 | 1

21.92 ГБ

В этой теме нет новых непрочитанных сообщений. Моя большая греческая свадьба / My Big Fat Greek Wedding [мелодрама, комедия, 2002] BDRemux 1080p

salma3

36 | 14

16.67 ГБ

В этой теме нет новых непрочитанных сообщений. Любовь, сбивающая с ног / Punch-Drunk Love [триллер, драма, мелодрама, комедия, 2002] BDRemux 1080p, Dvo

salma3

22 | 17

27.48 ГБ

В этой теме нет новых непрочитанных сообщений. Через Вселенную / Across the Universe [Мелодрама, мюзикл, фэнтези, 2007] UHD BDRemux 2160p, Mvo [4K]

salma3

12 | 4

53.06 ГБ


Начать новую тему Ответить на тему  [ 1 сообщение ] 




Для Мосгорсуда, Роскомнадзора и рекламодателей:: mosgorsud-torrent[собачка]yandex.ru
cron