Торрент файл
скачать торрент магнет ссылка Добавлен: 24 авг 2018, 11:15
Размер: 8.71 ГБ
Сидеров: 0
Личеров: 0
Статус: (salma3)
Автор

СообщениеДобавлено: 24 авг 2018, 11:15 

В сети
Супермодератор
Аватара пользователя
Дата регистрации:
15 фев 2012, 16:44
Возраст: 29
Спасибо: 7433 / 2147
Сообщения: 80215
Год выхода: 1993
Жанр: драма, мелодрама, комедия
Режиссер: Хулио Медем

В ролях: Эмма Суарес, Нанчо Ново, Мария Барранко, Карра Элехальде, Кармело Гомес, Кристина Маркос, Моника Молина, Ана Грасиа

О фильме: Хота намеревается совершить самоубийство. Пока он думает, прыгать ли ему с моста, с этого же моста падает девушка…



Страна: Испания
Продолжительность: 01:54:38
Перевод 1: Профессиональный (многоголосый закадровый) Лицензия
Перевод 2: Авторский (одноголосый закадровый) Антон Алексеев
Перевод 3: Любительский (одноголосый закадровый) Виталий Арсеньев
Субтитры: испанские английские, французские, русские

Файл
Качество: BDRip 720p
Видео: MPEG4 Video (H264), 1,85:1, 1280x690, 24,000 fps, 9214 kbps
Аудио 1: АС3, 6 ch, 448 kb/s, 48.0 kHz, 16 bits (Профессиональный многоголосый)
Аудио 2: АС3, 6 ch, 384 kb/s, 48.0 kHz, 16 bits (Авторский одноголосый, Антон Алексеев)
Аудио 3: АС3, 2 ch, 192 kb/s, 48.0 kHz, 16 bits (Одноголосый, Виталий Арсеньев)
Аудио 4: АС3, 6 ch, 640 kb/s, 48.0 kHz, 16 bits (Испанский)

Формат : Matroska
Версия формата : Version 4 / Version 2
Размер файла : 8,71 Гбайт
Продолжительность : 1 ч. 54 м.
Общий поток : 10,9 Мбит/сек
Дата кодирования : UTC 2018-07-13 06:32:17
Программа кодирования : mkvmerge v20.0.0 ('I Am The Sun') 64-bit
Библиотека кодирования : libebml v1.3.5 + libmatroska v1.4.8

Видео
Идентификатор : 1
Формат : AVC
Формат/Информация : Advanced Video Codec
Профиль формата : High@L4.1
Настройки формата : CABAC / 9 Ref Frames
Параметр CABAC формата : Да
Параметр RefFrames формата : 9 кадров
Идентификатор кодека : V_MPEG4/ISO/AVC
Продолжительность : 1 ч. 54 м.
Битрейт : 9214 Кбит/сек
Ширина : 1280 пикселей
Высота : 690 пикселей
Соотношение сторон : 1,85:1
Режим частоты кадров : Постоянный
Частота кадров : 24,000 кадра/сек
Цветовое пространство : YUV
Субдискретизация насыщенности : 4:2:0
Битовая глубина : 8 бит
Тип развёртки : Прогрессивная
Бит/(Пиксели*Кадры) : 0.435
Размер потока : 7,38 Гбайт (85%)
Библиотека кодирования : x264 core 148 r2692.11 7386685 VietHD_Custom_64
Настройки программы : cabac=1 / ref=9 / deblock=1:-3:-3 / analyse=0x3:0x133 / me=umh / subme=10 / psy=1 / fade_compensate=0.00 / psy_rd=1.10:0.00 / mixed_ref=1 / me_range=24 / chroma_me=1 / trellis=2 / 8x8dct=1 / cqm=0 / deadzone=21,11 / fast_pskip=0 / chroma_qp_offset=-2 / threads=12 / lookahead_threads=2 / sliced_threads=0 / nr=0 / decimate=0 / interlaced=0 / bluray_compat=0 / constrained_intra=0 / fgo=0 / bframes=7 / b_pyramid=2 / b_adapt=2 / b_bias=0 / direct=3 / weightb=1 / open_gop=0 / weightp=2 / keyint=250 / keyint_min=24 / scenecut=40 / intra_refresh=0 / rc_lookahead=60 / rc=crf / mbtree=0 / crf=17.3000 / qcomp=0.65 / qpmin=0:0:0 / qpmax=69:69:69 / qpstep=4 / vbv_maxrate=62500 / vbv_bufsize=78125 / crf_max=0.0 / nal_hrd=none / filler=0 / ip_ratio=1.30 / pb_ratio=1.20 / aq=3:0.69 / aq-sensitivity=10.00 / aq-factor=1.00:1.00:1.00 / aq2=0 / aq3=0
Default : Да
Forced : Нет
Цветовой диапазон : Limited
Коэффициенты матрицы : BT.709

Аудио #1
Идентификатор : 2
Формат : AC-3
Формат/Информация : Audio Coding 3
Идентификатор кодека : A_AC3
Продолжительность : 1 ч. 54 м.
Вид битрейта : Постоянный
Битрейт : 448 Кбит/сек
Каналы : 6 каналов
Расположение каналов : Front: L C R, Side: L R, LFE
Частота : 48,0 КГц
Частота кадров : 31,250 кадров/сек (1536 SPF)
Битовая глубина : 16 бит
Метод сжатия : С потерями
Размер потока : 367 Мбайт (4%)
Заголовок : MVO
Язык : Russian
Default : Нет
Forced : Нет

Аудио #2
Идентификатор : 3
Формат : AC-3
Формат/Информация : Audio Coding 3
Идентификатор кодека : A_AC3
Продолжительность : 1 ч. 54 м.
Вид битрейта : Постоянный
Битрейт : 384 Кбит/сек
Каналы : 6 каналов
Расположение каналов : Front: L C R, Side: L R, LFE
Частота : 48,0 КГц
Частота кадров : 31,250 кадров/сек (1536 SPF)
Битовая глубина : 16 бит
Метод сжатия : С потерями
Размер потока : 315 Мбайт (4%)
Заголовок : AVO Алексеев
Язык : Russian
Default : Нет
Forced : Нет

Аудио #3
Идентификатор : 4
Формат : AC-3
Формат/Информация : Audio Coding 3
Идентификатор кодека : A_AC3
Продолжительность : 1 ч. 54 м.
Вид битрейта : Постоянный
Битрейт : 192 Кбит/сек
Каналы : 2 канала
Расположение каналов : Front: L R
Частота : 48,0 КГц
Частота кадров : 31,250 кадров/сек (1536 SPF)
Битовая глубина : 16 бит
Метод сжатия : С потерями
Размер потока : 157 Мбайт (2%)
Заголовок : VO Арсеньев
Язык : Russian
Default : Нет
Forced : Нет

Аудио #4
Идентификатор : 5
Формат : AC-3
Формат/Информация : Audio Coding 3
Идентификатор кодека : A_AC3
Продолжительность : 1 ч. 54 м.
Вид битрейта : Постоянный
Битрейт : 640 Кбит/сек
Каналы : 6 каналов
Расположение каналов : Front: L C R, Side: L R, LFE
Частота : 48,0 КГц
Частота кадров : 31,250 кадров/сек (1536 SPF)
Битовая глубина : 16 бит
Метод сжатия : С потерями
Размер потока : 525 Мбайт (6%)
Заголовок : Spanish
Язык : Spanish
Default : Нет
Forced : Нет

Текст #1
Идентификатор : 6
Формат : UTF-8
Идентификатор кодека : S_TEXT/UTF8
Идентификатор кодека/Информация : UTF-8 Plain Text
Продолжительность : 1 ч. 51 м.
Битрейт : 46 бит/сек
ElementCount : 1231
Размер потока : 38,1 Кбайт (0%)
Заголовок : Spanish
Язык : Spanish
Default : Нет
Forced : Нет

Текст #2
Идентификатор : 7
Формат : UTF-8
Идентификатор кодека : S_TEXT/UTF8
Идентификатор кодека/Информация : UTF-8 Plain Text
Продолжительность : 1 ч. 49 м.
Битрейт : 45 бит/сек
ElementCount : 1408
Размер потока : 36,7 Кбайт (0%)
Заголовок : English
Язык : English
Default : Нет
Forced : Нет

Текст #3
Идентификатор : 8
Формат : UTF-8
Идентификатор кодека : S_TEXT/UTF8
Идентификатор кодека/Информация : UTF-8 Plain Text
Продолжительность : 1 ч. 48 м.
Битрейт : 48 бит/сек
ElementCount : 1413
Размер потока : 38,4 Кбайт (0%)
Заголовок : French
Язык : French
Default : Нет
Forced : Нет

Текст #4
Идентификатор : 9
Формат : UTF-8
Идентификатор кодека : S_TEXT/UTF8
Идентификатор кодека/Информация : UTF-8 Plain Text
Продолжительность : 1 ч. 51 м.
Битрейт : 69 бит/сек
ElementCount : 1175
Размер потока : 56,8 Кбайт (0%)
Язык : Russian
Default : Нет
Forced : Нет

Меню
00:00:00.000 : en:00:00:00.000
00:10:12.417 : en:00:10:12.417
00:19:42.167 : en:00:19:42.167
00:28:59.833 : en:00:28:59.833
00:39:13.917 : en:00:39:13.917
00:47:53.500 : en:00:47:53.500
00:57:54.292 : en:00:57:54.292
01:07:19.750 : en:01:07:19.750
01:17:10.792 : en:01:17:10.792
01:28:54.500 : en:01:28:54.500
01:35:05.417 : en:01:35:05.417
01:43:56.083 : en:01:43:56.083


_________________
Проголосуй за трекер Открытый торрент трекер - RUS-MEDIA.ORG

Проголосуй Открытый торрент трекер - RUS-MEDIA.ORG


Вернуться к началу
 Профиль Отправить личное сообщение  
 
   Похожие торренты   Автор   Торрент   Размер 
В этой теме нет новых непрочитанных сообщений. Рыжая белка / La ardilla roja [драма, мелодрама, комедия, 1993] DVDRip, Mvo

salma3

50 | 9

2.05 ГБ

В этой теме нет новых непрочитанных сообщений. Консьерж / For Love or Money [драма, мелодрама, комедия, 1993] BDRip 720p, Dub

salma3

14 | 6

4.71 ГБ

В этой теме нет новых непрочитанных сообщений. Неспящие в Сиэтле / Sleepless in Seattle [Драма, мелодрама, комедия, 1993] BDRip 720p, Dub

salma3

7 | 7

6.11 ГБ

В этой теме нет новых непрочитанных сообщений. Зятек / Son in Law [драма, мелодрама, комедия, 1993] WEB-DL 720p, Mvo+Sub

salma3

47 | 11

3.19 ГБ

В этой теме нет новых непрочитанных сообщений. Парень с того света / My Boyfriend's Back [комедия, ужасы, фэнтези, мелодрама, 1993] BDRip 720p, Avo

salma3

18 | 9

7.46 ГБ

В этой теме нет новых непрочитанных сообщений. Консьерж / For Love or Money [драма, мелодрама, комедия, 1993] BDRip 1080p, Dub

salma3

15 | 10

10.66 ГБ

В этой теме нет новых непрочитанных сообщений. Сердце и души / Heart and Souls [фэнтези, драма, мелодрама, комедия, 1993] WEB-DL 720p, Mvo

salma3

41 | 4

3.26 ГБ


Начать новую тему Ответить на тему  [ 1 сообщение ] 




Для Мосгорсуда, Роскомнадзора и рекламодателей:: mosgorsud-torrent[собачка]yandex.ru
cron