Торрент файл
скачать торрент магнет ссылка Добавлен: 01 сен 2018, 21:22
Размер: 44.28 ГБ
Сидеров: 0
Личеров: 0
Статус: (salma3)
Автор

СообщениеДобавлено: 01 сен 2018, 21:22 

В сети
Супермодератор
Аватара пользователя
Дата регистрации:
15 фев 2012, 16:44
Возраст: 29
Спасибо: 7433 / 2147
Сообщения: 80214
Год выхода: 1995
Жанр: драма, криминал, биография
Режиссер: Мартин Скорсезе

В ролях: Роберт Де Ниро, Шэрон Стоун, Джо Пеши, Джеймс Вудс, Дон Риклз, Алан Кинг, Кевин Поллак, Л. К. Джонс, Дик Смотерз, Фрэнк Винсент

О фильме: Никто не может сравниться с Сэмом Ротстином. Никто не умеет зарабатывать деньги, как он. Никто не умеет работать так самоотверженно и аккуратно, как трудяга Сэм. За свои неоспоримые достоинства Ротстин получил кличку «Асс». И именно поэтому боссы мафии решили отправить Асса заправлять огромным шикарным казино в Лас-Вегасе. А чтобы Сэму никто не мешал работать, мафиози отправили вслед за Ассом друга детства Ротстина — Никки Санторо, отпетого бандита и безжалостного головореза. В Лас-Вегасе Асс как всегда с блеском выполнял свою работу: Казино процветало, водопад денег беспрестанно лился в карманы довольных гангстеров-покровителей. Городские заправилы находилисьна довольствии у мафии, полицейские и суды были куплены, и, казалось ничто не может омрачить жизнь Асса. Но Господь распорядился иначе. Несокрушимой империи Сэма было суждено утонуть в трагедии и крови.



Выпущено: США, Франция / Universal Pictures
Продолжительность: 02:58:20
Перевод: Профессиональный (двухголосный, закадровый), Профессиональный (многоголосый закадровый), Авторский
Контейнер: .MKV
Видео: x264, 1920x1080, 24.7 Mb/s, 23.976 fps
Звук:
#1 Russian DTS 5.1 @ 768 kbps (DVO BD EUR)
#2 Russian AC3 2.0 @ 192 kbps (MVO ОРТ)
#3 Russian AC3 2.0 @ 192 kbps (DVO РЕН-ТВ/Культура)
#4 Russian DTS 5.1 @ 1509 kbps (VO Гаврилов)
#5 Russian DTS 5.1 @ 1509 kbps (VO Живов)
#6 Russian DTS 5.1 @ 1509 kbps (VO Карцев)
#7 Russian AC3 2.0 @ 192 kbps (VO Визгунов)
#8 Russian DTS 5.1 @ 1509 kbps (VO Гаевский)
#9 Russian DTS 5.1 @ 1509 kbps (VO Штамп aka sf@irat)
#10 Ukrainian AC3 2.0 @ 192 kbps (MVO 1+1)
#11 English DTS 5.1 @ 1509 kbps
#12 English AC3 2.0 @ 192 kbps (Commentary)
Субтитры: russian (forced, full, commentary), english (full, commentary)

Релиз от:









OAR HD DVD наложен поверх HDTV open matte с помощью AutoOverlay AviSynth plugin. Цвет усреднен. В некоторых сценах могут быть заметны следы удаления логотипа.

Дорожка с Гаевским из раздачи sashock86. Заказ - будулайроманов, mv73. Работа со звуком - sashock86. Дорожка получена наложением чистого голоса на центр декодированной DTS-HD Master Audio. Наложение голоса проводилось пофразово, с оптимальным размещением фраз перевода и поэпизодной настройкой уровня.

Дорожка РЕН-ТВ из раздачи
moon_c@t. Звук записан с телеканала "Культура". Дорожка синхронизирована с BD. Текст читали Олег Куценко и Людмила Ильина.

Дорожка ОРТ из раздачи suricat, оцифровка VHS.

Украинская дорожка найдена в сети.

Остальные звуковые дорожки взяты из релиза HDCLUB.

Полные русские субтитры распознаны с DVD Кармен видео, по переводу идентичны озвучке BD EUR.
General
Complete name : Casino.1995.Open.Matte.1080p-BLUEBIRD.mkv
Format : Matroska
Format version : Version 4 / Version 2
File size : 44.3 GiB
Duration : 2 h 58 min
Overall bit rate : 35.5 Mb/s
Movie name : Casino (1995) Open Matte
Encoded date : UTC 2018-08-25 11:12:17
Writing application : mkvmerge v25.0.0 ('Prog Noir') 64-bit
Writing library : libebml v1.3.6 + libmatroska v1.4.9
Cover : Yes
Attachments : cover

Video
ID : 1
Format : AVC
Format/Info : Advanced Video Codec
Format profile : High@L4.1
Format settings : CABAC / 4 Ref Frames
Format settings, CABAC : Yes
Format settings, ReFrames : 4 frames
Codec ID : V_MPEG4/ISO/AVC
Duration : 2 h 58 min
Bit rate : 24.7 Mb/s
Width : 1 920 pixels
Height : 1 080 pixels
Display aspect ratio : 16:9
Frame rate mode : Constant
Frame rate : 23.976 (24000/1001) FPS
Color space : YUV
Chroma subsampling : 4:2:0
Bit depth : 8 bits
Scan type : Progressive
Bits/(Pixel*Frame) : 0.498
Stream size : 30.8 GiB (70%)
Writing library : x264 core 155 r2901 7d0ff22
Encoding settings : cabac=1 / ref=4 / deblock=1:-3:-3 / analyse=0x3:0x133 / me=umh / subme=11 / psy=1 / psy_rd=1.00:0.00 / mixed_ref=1 / me_range=32 / chroma_me=1 / trellis=2 / 8x8dct=1 / cqm=0 / deadzone=21,11 / fast_pskip=1 / chroma_qp_offset=-2 / threads=12 / lookahead_threads=1 / sliced_threads=0 / nr=0 / decimate=1 / interlaced=0 / bluray_compat=0 / constrained_intra=0 / bframes=8 / b_pyramid=2 / b_adapt=2 / b_bias=0 / direct=1 / weightb=1 / open_gop=0 / weightp=2 / keyint=240 / keyint_min=23 / scenecut=40 / intra_refresh=0 / rc_lookahead=40 / rc=crf / mbtree=0 / crf=17.0 / qcomp=0.60 / qpmin=0 / qpmax=69 / qpstep=4 / vbv_maxrate=50000 / vbv_bufsize=62500 / crf_max=0.0 / nal_hrd=none / filler=0 / ip_ratio=1.40 / pb_ratio=1.30 / aq=1:1.00
Language : English
Default : Yes
Forced : No
Color range : Limited
Color primaries : BT.709
Transfer characteristics : BT.709
Matrix coefficients : BT.709

Audio #1
ID : 2
Format : DTS
Format/Info : Digital Theater Systems
Codec ID : A_DTS
Duration : 2 h 58 min
Bit rate mode : Constant
Bit rate : 768 kb/s
Channel(s) : 6 channels
Channel positions : Front: L C R, Side: L R, LFE
Sampling rate : 48.0 kHz
Frame rate : 93.750 FPS (512 SPF)
Bit depth : 24 bits
Compression mode : Lossy
Stream size : 981 MiB (2%)
Title : DVO BD EUR
Language : Russian
Default : Yes
Forced : No

Audio #2
ID : 3
Format : AC-3
Format/Info : Audio Coding 3
Codec ID : A_AC3
Duration : 2 h 58 min
Bit rate mode : Constant
Bit rate : 192 kb/s
Channel(s) : 2 channels
Channel positions : Front: L R
Sampling rate : 48.0 kHz
Frame rate : 31.250 FPS (1536 SPF)
Bit depth : 16 bits
Compression mode : Lossy
Stream size : 245 MiB (1%)
Title : MVO ORT
Language : Russian
Service kind : Complete Main
Default : No
Forced : No

Audio #3
ID : 4
Format : AC-3
Format/Info : Audio Coding 3
Codec ID : A_AC3
Duration : 2 h 58 min
Bit rate mode : Constant
Bit rate : 192 kb/s
Channel(s) : 2 channels
Channel positions : Front: L R
Sampling rate : 48.0 kHz
Frame rate : 31.250 FPS (1536 SPF)
Bit depth : 16 bits
Compression mode : Lossy
Stream size : 245 MiB (1%)
Title : DVO REN-TV
Language : Russian
Service kind : Complete Main
Default : No
Forced : No

Audio #4
ID : 5
Format : DTS
Format/Info : Digital Theater Systems
Codec ID : A_DTS
Duration : 2 h 58 min
Bit rate mode : Constant
Bit rate : 1 509 kb/s
Channel(s) : 6 channels
Channel positions : Front: L C R, Side: L R, LFE
Sampling rate : 48.0 kHz
Frame rate : 93.750 FPS (512 SPF)
Bit depth : 24 bits
Compression mode : Lossy
Stream size : 1.88 GiB (4%)
Title : VO Gavrilov
Language : Russian
Default : No
Forced : No

Audio #5
ID : 6
Format : DTS
Format/Info : Digital Theater Systems
Codec ID : A_DTS
Duration : 2 h 58 min
Bit rate mode : Constant
Bit rate : 1 509 kb/s
Channel(s) : 6 channels
Channel positions : Front: L C R, Side: L R, LFE
Sampling rate : 48.0 kHz
Frame rate : 93.750 FPS (512 SPF)
Bit depth : 24 bits
Compression mode : Lossy
Stream size : 1.88 GiB (4%)
Title : VO Zhivov
Language : Russian
Default : No
Forced : No

Audio #6
ID : 7
Format : DTS
Format/Info : Digital Theater Systems
Codec ID : A_DTS
Duration : 2 h 58 min
Bit rate mode : Constant
Bit rate : 1 509 kb/s
Channel(s) : 6 channels
Channel positions : Front: L C R, Side: L R, LFE
Sampling rate : 48.0 kHz
Frame rate : 93.750 FPS (512 SPF)
Bit depth : 24 bits
Compression mode : Lossy
Stream size : 1.88 GiB (4%)
Title : VO Karcev
Language : Russian
Default : No
Forced : No

Audio #7
ID : 8
Format : AC-3
Format/Info : Audio Coding 3
Codec ID : A_AC3
Duration : 2 h 58 min
Bit rate mode : Constant
Bit rate : 192 kb/s
Channel(s) : 2 channels
Channel positions : Front: L R
Sampling rate : 48.0 kHz
Frame rate : 31.250 FPS (1536 SPF)
Bit depth : 16 bits
Compression mode : Lossy
Stream size : 245 MiB (1%)
Title : VO Vizgunov
Language : Russian
Service kind : Complete Main
Default : No
Forced : No

Audio #8
ID : 9
Format : DTS
Format/Info : Digital Theater Systems
Codec ID : A_DTS
Duration : 2 h 58 min
Bit rate mode : Constant
Bit rate : 1 509 kb/s
Channel(s) : 6 channels
Channel positions : Front: L C R, Side: L R, LFE
Sampling rate : 48.0 kHz
Frame rate : 93.750 FPS (512 SPF)
Bit depth : 24 bits
Compression mode : Lossy
Stream size : 1.88 GiB (4%)
Title : VO Gaevskiy
Language : Russian
Default : No
Forced : No

Audio #9
ID : 10
Format : DTS
Format/Info : Digital Theater Systems
Codec ID : A_DTS
Duration : 2 h 58 min
Bit rate mode : Constant
Bit rate : 1 509 kb/s
Channel(s) : 6 channels
Channel positions : Front: L C R, Side: L R, LFE
Sampling rate : 48.0 kHz
Frame rate : 93.750 FPS (512 SPF)
Bit depth : 24 bits
Compression mode : Lossy
Stream size : 1.88 GiB (4%)
Title : VO Shtamp aka sf@irat
Language : Russian
Default : No
Forced : No

Audio #10
ID : 11
Format : AC-3
Format/Info : Audio Coding 3
Codec ID : A_AC3
Duration : 2 h 58 min
Bit rate mode : Constant
Bit rate : 192 kb/s
Channel(s) : 2 channels
Channel positions : Front: L R
Sampling rate : 48.0 kHz
Frame rate : 31.250 FPS (1536 SPF)
Bit depth : 16 bits
Compression mode : Lossy
Stream size : 245 MiB (1%)
Title : MVO 1+1
Language : Ukrainian
Service kind : Complete Main
Default : No
Forced : No

Audio #11
ID : 12
Format : DTS
Format/Info : Digital Theater Systems
Codec ID : A_DTS
Duration : 2 h 58 min
Bit rate mode : Constant
Bit rate : 1 509 kb/s
Channel(s) : 6 channels
Channel positions : Front: L C R, Side: L R, LFE
Sampling rate : 48.0 kHz
Frame rate : 93.750 FPS (512 SPF)
Bit depth : 24 bits
Compression mode : Lossy
Stream size : 1.88 GiB (4%)
Title : Original
Language : English
Default : No
Forced : No

Audio #12
ID : 13
Format : AC-3
Format/Info : Audio Coding 3
Codec ID : A_AC3
Duration : 2 h 58 min
Bit rate mode : Constant
Bit rate : 192 kb/s
Channel(s) : 2 channels
Channel positions : Front: L R
Sampling rate : 48.0 kHz
Frame rate : 31.250 FPS (1536 SPF)
Bit depth : 16 bits
Compression mode : Lossy
Stream size : 245 MiB (1%)
Title : Commentary
Language : English
Service kind : Complete Main
Default : No
Forced : No

Text #1
ID : 14
Format : UTF-8
Codec ID : S_TEXT/UTF8
Codec ID/Info : UTF-8 Plain Text
Duration : 2 h 51 min
Bit rate : 0 b/s
Count of elements : 24
Stream size : 1.06 KiB (0%)
Title : Forced
Language : Russian
Default : No
Forced : No

Text #2
ID : 15
Format : UTF-8
Codec ID : S_TEXT/UTF8
Codec ID/Info : UTF-8 Plain Text
Duration : 2 h 51 min
Bit rate : 142 b/s
Count of elements : 2711
Stream size : 178 KiB (0%)
Title : Full
Language : Russian
Default : No
Forced : No

Text #3
ID : 16
Format : UTF-8
Codec ID : S_TEXT/UTF8
Codec ID/Info : UTF-8 Plain Text
Duration : 2 h 57 min
Bit rate : 155 b/s
Count of elements : 3022
Stream size : 203 KiB (0%)
Title : Commentary
Language : Russian
Default : No
Forced : No

Text #4
ID : 17
Format : UTF-8
Codec ID : S_TEXT/UTF8
Codec ID/Info : UTF-8 Plain Text
Duration : 2 h 55 min
Bit rate : 104 b/s
Count of elements : 3643
Stream size : 134 KiB (0%)
Title : Full
Language : English
Default : No
Forced : No

Text #5
ID : 18
Format : UTF-8
Codec ID : S_TEXT/UTF8
Codec ID/Info : UTF-8 Plain Text
Duration : 2 h 54 min
Bit rate : 122 b/s
Count of elements : 3050
Stream size : 156 KiB (0%)
Title : Commentary
Language : English
Default : No
Forced : No

Menu
00:00:00.000 : en:00:00:00.000
00:04:56.627 : en:00:04:55.627
00:21:59.232 : en:00:21:58.232
00:27:50.584 : en:00:27:49.584
00:33:47.732 : en:00:33:46.732
00:38:58.168 : en:00:38:57.168
00:58:24.123 : en:00:58:23.123
01:06:12.300 : en:01:06:11.300
01:26:25.636 : en:01:26:24.636
01:31:50.753 : en:01:31:49.753
02:00:30.512 : en:02:00:29.512
02:14:11.375 : en:02:14:10.375
02:28:32.568 : en:02:28:31.568
02:39:56.793 : en:02:39:55.793
02:46:57.463 : en:02:46:56.463
02:50:13.118 : en:02:50:12.118
02:58:21.147 : en:02:58:20.147



_________________
Проголосуй за трекер Открытый торрент трекер - RUS-MEDIA.ORG

Проголосуй Открытый торрент трекер - RUS-MEDIA.ORG


Вернуться к началу
 Профиль Отправить личное сообщение  
 
   Похожие торренты   Автор   Торрент   Размер 
В этой теме нет новых непрочитанных сообщений. Казино / Casino [Драма, криминал, биография, 1995] HDRip, Dvo [Open Matte]

salma3

0 | 0

3.63 ГБ

В этой теме нет новых непрочитанных сообщений. Казино / Casino [драма, криминал, биография, 1995] BDRip 1080p, Mvo

salma3

0 | 1

17.45 ГБ

В этой теме нет новых непрочитанных сообщений. Аполлон 13 / Apollo 13 [драма, история, триллер, 1995] Hybrid 1080p, Dub [Open Matte]

salma3

4 | 2

26.78 ГБ

В этой теме нет новых непрочитанных сообщений. Осада / The Siege [боевик, триллер, драма, криминал, 1998] Hybrid 1080p, Dub [Open Matte]

salma3

18 | 3

15.52 ГБ

В этой теме нет новых непрочитанных сообщений. Казино Джек / Casino Jack [Драма, комедия, криминал, биография, 2009] BDRip 720p, Dub+Sub

salma3

67 | 19

6.41 ГБ

В этой теме нет новых непрочитанных сообщений. Подозрительные лица / The Usual Suspects [триллер, драма, криминал, 1995] WEB-DL 1080p, Mvo [Open Matte]

salma3

0 | 0

13.13 ГБ

В этой теме нет новых непрочитанных сообщений. Прометей / Prometheus [фантастика, триллер, приключения, 2012] Hybrid 1080p, Dub [Open Matte]

salma3

0 | 0

33.7 ГБ


Начать новую тему Ответить на тему  [ 1 сообщение ] 




Для Мосгорсуда, Роскомнадзора и рекламодателей:: mosgorsud-torrent[собачка]yandex.ru
cron