Торрент файл
скачать торрент магнет ссылка Добавлен: 05 сен 2018, 11:31
Размер: 11.63 ГБ
Сидеров: 0
Личеров: 0
Статус: (salma3)
Автор

СообщениеДобавлено: 05 сен 2018, 11:31 

Не в сети
Супермодератор
Аватара пользователя
Дата регистрации:
15 фев 2012, 16:44
Возраст: 29
Спасибо: 7401 / 2147
Сообщения: 78470
Год выхода: 2002
Жанр: Триллер, драма, криминал
Режиссер: Брайан Де Пальма

В ролях: Ребекка Ромин, Антонио Бандерас, Питер Койот, Эрик Эбони, Эдуард Монтут, Рье Расмуссен, Тьерри Фремон, Грегг Генри, Фиона Курзон, Даниэль Мильграм, Жан-Марк Минео, Жан Чатель, Стефани Пети, Оливье Фоллет,

О фильме:
Семь лет назад, во время Каннского фестиваля изобретательная воровка Лаура Эш (Ромин), совершив дерзкое и виртуозное похищение бриллиантов, оставила ни с чем своих подельников и вместе с добычей исчезла в неизвестном направлении. Теперь она, став женой дипломата, живет в Париже, но старается как можно меньше появляться на публике. Однако, пронырливому папарацци Николасу Бардо (Бандерас) удается сделать снимок таинственной красавицы, и появившаяся в прессе фотография Лауры выводит на ее след бывших сообщников…



Страна: Франция, Швейцария
Продолжительность: 01:54:30
Перевод: Профессиональный (дублированный)

Файл
Кодек: x264
Качество: WEB-DL 1080p
Видео: MPEG-4 AVC, 13.6 Мбит/с, 1920x1080, 23.976 кадра/сек
Звук 1: Русский (AC3, 6 ch, 448 Кбит/с)
Звук 2: Английский (AC3, 2 ch, 224 Кбит/с)
Субтитры: Английские+(хардсаб англ.на французскую речь)

Общее
Уникальный идентификатор : 234756039761265741253272581895170225036 (0xB09C5E6083C6B7718170C8F4FDC6F38C)
Полное имя : G:DVDRip 29Femme.Fatale.2002.1080p.AMZN.WEBRip.DDP2.0.x264-ABMFemme.Fatale.2002.AMZN.WEB-DL 1080p.mkv
Формат : Matroska
Версия формата : Version 4 / Version 2
Размер файла : 11,6 Гбайт
Продолжительность : 1 ч. 54 м.
Режим общего битрейта : Переменный
Общий поток : 14,5 Мбит/сек
Дата кодирования : UTC 2010-02-22 21:41:31
Программа кодирования : mkvmerge v5.9.0 ('On The Loose') built on Dec 9 2012 15:37:01
Библиотека кодирования : libebml v1.3.0 + libmatroska v1.4.0
DURATION : 01:49:21.956000000
NUMBER_OF_FRAMES : 805
NUMBER_OF_BYTES : 23923
_STATISTICS_WRITING_APP : mkvmerge v16.0.0 ('Protest') 64-bit
_STATISTICS_WRITING_DATE_UTC : 2017-10-23 05:09:52
_STATISTICS_TAGS : BPS DURATION NUMBER_OF_FRAMES NUMBER_OF_BYTES

Видео
Идентификатор : 1
Формат : AVC
Формат/Информация : Advanced Video Codec
Профиль формата : High@L4.0
Параметр CABAC формата : Да
Параметр ReFrames формата : 4 кадра
Идентификатор кодека : V_MPEG4/ISO/AVC
Продолжительность : 1 ч. 54 м.
Вид битрейта : Переменный
Битрейт : 13,6 Мбит/сек
Максимальный битрейт : 15,0 Мбит/сек
Ширина : 1920 пикселей
Высота : 1080 пикселей
Соотношение сторон : 16:9
Режим частоты кадров : Постоянный
Частота кадров : 23,976 кадра/сек
Цветовое пространство : YUV
Субдискретизация насыщенности : 4:2:0
Битовая глубина : 8 бит
Тип развёртки : Прогрессивная
Бит/(Пиксели*Кадры) : 0.273
Размер потока : 10,9 Гбайт (93%)
Заголовок : Femme.Fatale.2002.AMZN.WEB-DL 1080p
Default : Да
Forced : Нет
Основные цвета : BT.709
Характеристики трансфера : BT.709
Коэффициенты матрицы : BT.709

Аудио #1
Идентификатор : 3
Формат : AC-3
Формат/Информация : Audio Coding 3
Расширение режима : CM (complete main)
Параметр Endianness формата : Big
Идентификатор кодека : A_AC3
Продолжительность : 1 ч. 54 м.
Вид битрейта : Постоянный
Битрейт : 448 Кбит/сек
Каналы : 6 каналов
Расположение каналов : Front: L C R, Side: L R, LFE
Частота : 48,0 КГц
Битовая глубина : 16 бит
Метод сжатия : С потерями
Задержка видео : 4 мс.
Размер потока : 367 Мбайт (3%)
Заголовок : Rus
Язык : Russian
Default : Да
Forced : Нет

Аудио #2
Идентификатор : 4
Формат : E-AC-3
Формат/Информация : Audio Coding 3
Параметр Endianness формата : Big
Идентификатор кодека : A_EAC3
Продолжительность : 1 ч. 54 м.
Вид битрейта : Постоянный
Битрейт : 224 Кбит/сек
Каналы : 2 канала
Расположение каналов : Front: L R
Частота : 48,0 КГц
Метод сжатия : С потерями
Размер потока : 183 Мбайт (2%)
Заголовок : Original
Язык : English
Default : Нет
Forced : Нет

Текст
Идентификатор : 2
Формат : UTF-8
Идентификатор кодека : S_TEXT/UTF8
Идентификатор кодека/Информация : UTF-8 Plain Text
Язык : English
Default : Нет
Forced : Нет
- Съемки проводились во Франции — в Париже и Каннах.
- Показанные в начале кадры кинокартины «Восток-Запад» режиссера Режис Варнье принадлежат реальному фильму, представленному на Каннском кинофестивале в 1999 году.
- Сначала роль Лоры предложили Уме Турман, но она не смогла принять предложение из-за беременности.
- Начало съемок — 12 марта 2001 года.
- Слоган фильма: «Nothing is more desirable or more deadly than a woman with a secret» (Ничто не является более желанным или более смертоносным, чем женщина с тайной)







Релиз от: funtden


_________________
Проголосуй за трекер Открытый торрент трекер - RUS-MEDIA.ORG

Проголосуй Открытый торрент трекер - RUS-MEDIA.ORG


Вернуться к началу
 Профиль Отправить личное сообщение  
 
   Похожие торренты   Автор   Торрент   Размер 
В этой теме нет новых непрочитанных сообщений. Молодая женщина / Jeune femme [Драма, комедия, 2017] Blu-ray 1080p, Mvo [Лицензия]

salma3

5 | 2

19.27 ГБ

В этой теме нет новых непрочитанных сообщений. Молодая женщина / Jeune femme [Драма, комедия, 2017] WEB-DL 1080p, Mvo [iTunes]

salma3

51 | 21

3.77 ГБ

В этой теме нет новых непрочитанных сообщений. Молодая женщина / Jeune femme [Драма, комедия, 2017] BDRemux 1080p, Mvo [Лицензия]

salma3

0 | 0

18.09 ГБ

В этой теме нет новых непрочитанных сообщений. Молодая женщина / Jeune femme [Драма, комедия, 2017] BDRip 1080p, Mvo [Лицензия]

salma3

9 | 5

11.05 ГБ

В этой теме нет новых непрочитанных сообщений. Le Ciel, les oiseaux et ta femme / Небо, птицы и женщина (Yannick Perrin, JTC Video) [2002 г., All Sex, Feature, Anal, Oral, DVDRip]

salma3

5 | 2

695.89 МБ

В этой теме нет новых непрочитанных сообщений. Женщина моего друга / La femme de mon pote [мелодрама, комедия, 1983] BDRemux 1080p, Mvo

salma3

0 | 0

24.83 ГБ

В этой теме нет новых непрочитанных сообщений. Брошенная женщина / La femme abandonnée [драма, 1992] TVRip, Mvo

salma3

0 | 0

1.37 ГБ


Начать новую тему Ответить на тему  [ 1 сообщение ] 




Для Мосгорсуда, Роскомнадзора и рекламодателей:: mosgorsud-torrent[собачка]yandex.ru
cron