Торрент файл
скачать торрент магнет ссылка Добавлен: 15 сен 2018, 10:31
Размер: 7.72 ГБ
Сидеров: 0
Личеров: 0
Статус: (salma3)
Автор

СообщениеДобавлено: 15 сен 2018, 10:31 

Не в сети
Супермодератор
Аватара пользователя
Дата регистрации:
15 фев 2012, 16:44
Возраст: 29
Спасибо: 7422 / 2147
Сообщения: 80035
Год выпуска: 1988
Выпущено: США, Morgan Creek Productions
Жанр: Боевик, триллер, комедия
Режиссер: Кристофер Кэйн

В ролях: Эмилио Эстевес, Кифер Сазерленд, Лу Даймонд Филлипс, Чарли Шин, Дермот Малруни, Кэйси Семашко, Теренс Стэмп, Джек Пэланс, Терри О’Куинн, Шэрон Томас

О фильме: В Нью-Мексико, во времена Дикого Запада, фермер-англичанин Джон Танстолл нанимает бездомных молодых «сорвиголов» для охраны своего ранчо от контролирующей округ бандитской группировки богатого землевладельца Мерфи. Когда Танстолл погибает от рук наемных убийц, местное правосудие «умывает руки». Но парни, ставшие одной семьей, объявляют вендетту Мерфи, заказчику убийства, и его приспешникам и оказываются объектом величайшей охоты во всей истории Дикого Запада. Слава «неуловимых мстителей» и их предводителя отважного Билли Кида растет. Так начиналась легенда…

Продолжительность: 01:46:35
Перевод: Профессиональный многоголосый, профессиональный двухголосый, авторский
Субтитры: Английские
Навигация по главам: Есть

Файл
Качество: BDRip 720p
Видео: MPEG-4 AVC, 8510 Кбит/сек, 1276x694, 24,000 кадра/сек
Аудио #1: AC3, 2 ch, 192 Кбит/сек | Русский, профессиональный (двухголосый закадровый) Екатеринбург Арт
Аудио #2: AC3, 6 ch, 384 Кбит/сек | Русский, профессиональный (многоголосый закадровый) Шпиль-Групп
Аудио #3: AC3, 6 ch, 448 Кбит/сек | Русский, авторский (одноголосый закадровый) A. Гаврилов
Аудио #4: AC3, 2 ch, 192 Кбит/сек | Русский, авторский (одноголосый закадровый) Павел Санаев
Аудио #5: AC3, 2 ch, 192 Кбит/сек | Украинский, профессиональный (многоголосый закадровый) 2+2
Аудио #6: AC3, 6 ch, 448 Кбит/сек | Английский, оригинал



x264 [info]: frame I:990 Avg QP:16.83 size:135592
x264 [info]: frame P:31649 Avg QP:18.79 size: 75595
x264 [info]: frame B:120840 Avg QP:20.92 size: 35352
-----------------------------------------------------
Общее
Уникальный идентификатор : 236731944503415576892396964542939562460 (0xB218EA009234A65AA632F95409C681DC)
Полное имя : Молодые.стрелки.1988.BDRip.720p.KORSAR.mkv
Формат : Matroska
Версия формата : Version 2
Размер файла : 7,72 Гбайт
Продолжительность : 1 ч. 46 м.
Общий поток : 10,4 Мбит/сек
Дата кодирования : UTC 2018-09-14 02:30:41
Программа кодирования : mkvmerge v5.8.0 ('No Sleep / Pillow') built on Sep 2 2012 15:37:04
Библиотека кодирования : libebml v1.2.3 + libmatroska v1.3.0

Видео
Идентификатор : 1
Формат : AVC
Формат/Информация : Advanced Video Codec
Профиль формата : High@L4.1
Настройки формата : CABAC / 9 Ref Frames
Параметр CABAC формата : Да
Параметр RefFrames формата : 9 кадров
Идентификатор кодека : V_MPEG4/ISO/AVC
Продолжительность : 1 ч. 46 м.
Битрейт : 8510 Кбит/сек
Ширина : 1276 пикселей
Высота : 694 пикселя
Соотношение сторон : 1,85:1
Режим частоты кадров : Постоянный
Частота кадров : 24,000 кадра/сек
Цветовое пространство : YUV
Субдискретизация насыщенности : 4:2:0
Битовая глубина : 8 бит
Тип развёртки : Прогрессивная
Бит/(Пиксели*Кадры) : 0.400
Размер потока : 6,18 Гбайт (80%)
Заголовок : RIP | MZMA
Библиотека кодирования : x264 core 152 r2851kMod ba24899
Настройки программы : cabac=1 / ref=9 / deblock=1:-2:-2 / analyse=0x3:0x113 / me=umh / subme=11 / psy=1 / fade_compensate=0.00 / psy_rd=1.00:0.00 / mixed_ref=1 / me_range=48 / chroma_me=1 / trellis=2 / 8x8dct=1 / cqm=0 / deadzone=21,11 / fast_pskip=0 / chroma_qp_offset=-2 / threads=6 / lookahead_threads=1 / sliced_threads=0 / nr=0 / decimate=0 / interlaced=0 / bluray_compat=0 / constrained_intra=0 / bframes=16 / b_pyramid=2 / b_adapt=2 / b_bias=0 / direct=3 / weightb=1 / open_gop=0 / weightp=2 / keyint=240 / keyint_min=23 / scenecut=40 / intra_refresh=0 / rc_lookahead=40 / rc=2pass / mbtree=0 / bitrate=8510 / ratetol=1.0 / qcomp=0.60 / qpmin=0 / qpmax=69 / qpstep=4 / cplxblur=20.0 / qblur=0.5 / vbv_maxrate=50000 / vbv_bufsize=62500 / nal_hrd=none / filler=0 / ip_ratio=1.40 / pb_ratio=1.30 / aq=1:1.00
Язык : English
По умолчанию : Да
Принудительно : Нет
Цветовой диапазон : Limited
Основные цвета : BT.709
Характеристики трансфера : BT.709
Коэффициенты матрицы : BT.709

Аудио #1
Идентификатор : 2
Формат : AC-3
Формат/Информация : Audio Coding 3
Идентификатор кодека : A_AC3
Продолжительность : 1 ч. 46 м.
Вид битрейта : Постоянный
Битрейт : 192 Кбит/сек
Каналы : 2 канала
Расположение каналов : Front: L R
Частота : 48,0 КГц
Частота кадров : 31,250 кадров/сек (1536 SPF)
Битовая глубина : 16 бит
Метод сжатия : С потерями
Размер потока : 146 Мбайт (2%)
Заголовок : DVO | Екатеринбург Арт
Язык : Russian
По умолчанию : Да
Принудительно : Нет

Аудио #2
Идентификатор : 3
Формат : AC-3
Формат/Информация : Audio Coding 3
Идентификатор кодека : A_AC3
Продолжительность : 1 ч. 46 м.
Вид битрейта : Постоянный
Битрейт : 384 Кбит/сек
Каналы : 6 каналов
Расположение каналов : Front: L C R, Side: L R, LFE
Частота : 48,0 КГц
Частота кадров : 31,250 кадров/сек (1536 SPF)
Битовая глубина : 16 бит
Метод сжатия : С потерями
Размер потока : 293 Мбайт (4%)
Заголовок : MVO | Шпиль-Групп
Язык : Russian
По умолчанию : Нет
Принудительно : Нет

Аудио #3
Идентификатор : 4
Формат : AC-3
Формат/Информация : Audio Coding 3
Идентификатор кодека : A_AC3
Продолжительность : 1 ч. 46 м.
Вид битрейта : Постоянный
Битрейт : 448 Кбит/сек
Каналы : 6 каналов
Расположение каналов : Front: L C R, Side: L R, LFE
Частота : 48,0 КГц
Частота кадров : 31,250 кадров/сек (1536 SPF)
Битовая глубина : 16 бит
Метод сжатия : С потерями
Размер потока : 342 Мбайт (4%)
Заголовок : AVO | A. Гаврилов
Язык : Russian
По умолчанию : Нет
Принудительно : Нет

Аудио #4
Идентификатор : 5
Формат : AC-3
Формат/Информация : Audio Coding 3
Идентификатор кодека : A_AC3
Продолжительность : 1 ч. 46 м.
Вид битрейта : Постоянный
Битрейт : 192 Кбит/сек
Каналы : 2 канала
Расположение каналов : Front: L R
Частота : 48,0 КГц
Частота кадров : 31,250 кадров/сек (1536 SPF)
Битовая глубина : 16 бит
Метод сжатия : С потерями
Размер потока : 146 Мбайт (2%)
Заголовок : AVO | П. Санаев
Язык : Russian
По умолчанию : Нет
Принудительно : Нет

Аудио #5
Идентификатор : 6
Формат : AC-3
Формат/Информация : Audio Coding 3
Идентификатор кодека : A_AC3
Продолжительность : 1 ч. 46 м.
Вид битрейта : Постоянный
Битрейт : 192 Кбит/сек
Каналы : 2 канала
Расположение каналов : Front: L R
Частота : 48,0 КГц
Частота кадров : 31,250 кадров/сек (1536 SPF)
Битовая глубина : 16 бит
Метод сжатия : С потерями
Размер потока : 146 Мбайт (2%)
Заголовок : MVO | 2+2
Язык : Ukrainian
По умолчанию : Нет
Принудительно : Нет

Аудио #6
Идентификатор : 7
Формат : AC-3
Формат/Информация : Audio Coding 3
Идентификатор кодека : A_AC3
Продолжительность : 1 ч. 46 м.
Вид битрейта : Постоянный
Битрейт : 448 Кбит/сек
Каналы : 6 каналов
Расположение каналов : Front: L C R, Side: L R, LFE
Частота : 48,0 КГц
Частота кадров : 31,250 кадров/сек (1536 SPF)
Битовая глубина : 16 бит
Метод сжатия : С потерями
Размер потока : 342 Мбайт (4%)
Заголовок : Original
Язык : English
По умолчанию : Нет
Принудительно : Нет

Текст #1
Идентификатор : 8
Формат : UTF-8
Идентификатор кодека : S_TEXT/UTF8
Идентификатор кодека/Информация : UTF-8 Plain Text
Язык : English
По умолчанию : Нет
Принудительно : Нет

Текст #2
Идентификатор : 9
Формат : UTF-8
Идентификатор кодека : S_TEXT/UTF8
Идентификатор кодека/Информация : UTF-8 Plain Text
Заголовок : SDH
Язык : English
По умолчанию : Нет
Принудительно : Нет

Меню
00:00:00.000 : en:Main Title/Not Another Hanging
00:03:47.880 : en:Flotsam and Jetsam
00:06:56.880 : en:Proper Table Manners
00:10:08.421 : en:"Get Ready for Hell"
00:13:59.379 : en:One of Murphy's Boys
00:15:46.421 : en:"Let's Dance"
00:22:58.421 : en:Ambush/Deputized
00:26:07.546 : en:Their First Arrest
00:31:55.755 : en:A Traitor and a Spy
00:36:45.254 : en:John Kinney vs. Billy the Kid
00:38:24.337 : en:Enlightenment Through Peyote
00:44:20.588 : en:Meet Buckshot Roberts
00:50:04.212 : en:The Last of His Tribe
00:55:32.047 : en:The Meaning of Necessary
01:00:00.005 : en:Fun with Sheriff Brady
01:01:41.047 : en:Getting Some Attention
01:05:37.212 : en:Charlie's Last Wish
01:09:19.546 : en:Half Horse, Half Devil
01:12:46.337 : en:The Test of All Tests
01:17:35.838 : en:Surrender to a Wedding
01:23:25.921 : en:Ready for a Massacre
01:30:45.921 : en:Send in the Troops
01:37:41.129 : en:"Now It's Over"
01:43:01.713 : en:End Credits

Релиз от:


_________________
Проголосуй за трекер Открытый торрент трекер - RUS-MEDIA.ORG

Проголосуй Открытый торрент трекер - RUS-MEDIA.ORG


Вернуться к началу
 Профиль Отправить личное сообщение  
 
   Похожие торренты   Автор   Торрент   Размер 
В этой теме нет новых непрочитанных сообщений. Молодые стрелки / Young Guns [Боевик, Триллер, Вестерн, Криминал, 1988] BDRip 720p, Dvo+Avo

salma3

0 | 0

5.18 ГБ

В этой теме нет новых непрочитанных сообщений. Молодые стрелки / Young Guns [Боевик, Триллер, Вестерн, Криминал, 1988] Blu-ray 1080p, Dvo+Sub

salma3

1 | 1

21.58 ГБ

В этой теме нет новых непрочитанных сообщений. Молодые стрелки / Young Guns [Боевик, Триллер, Вестерн, Криминал, 1988] HDRip-AVC, Dvo

salma3

19 | 2

2.74 ГБ

В этой теме нет новых непрочитанных сообщений. Молодые стрелки 2 / Young Guns II [Вестерн, Боевик, 1990] HDTVRip-AVC, Mvo

salma3

12 | 5

2.44 ГБ

В этой теме нет новых непрочитанных сообщений. Молодые стрелки 2 / Young Guns II [вестерн, 1990] WEBRip 1080p, Dvo

salma3

13 | 11

10.37 ГБ

В этой теме нет новых непрочитанных сообщений. Два ствола / 2 Guns [боевик, триллер, драма, комедия, 2013] BDRip, Avo+Sub [Гаврилов]

salma3

113 | 8

1.45 ГБ

В этой теме нет новых непрочитанных сообщений. Вольные стрелки / Snapphanar [Боевик, драма, история, 2006] BDRip 720p, Mvo+Sub

salma3

196 | 50

7.17 ГБ


Начать новую тему Ответить на тему  [ 1 сообщение ] 




Для Мосгорсуда, Роскомнадзора и рекламодателей:: mosgorsud-torrent[собачка]yandex.ru
cron