Торрент файл
скачать торрент магнет ссылка Добавлен: 19 сен 2018, 20:57
Размер: 13.74 ГБ
Сидеров: 0
Личеров: 0
Статус: (salma3)
Автор

СообщениеДобавлено: 19 сен 2018, 20:57 

Не в сети
Супермодератор
Аватара пользователя
Дата регистрации:
15 фев 2012, 16:44
Возраст: 29
Спасибо: 7421 / 2147
Сообщения: 79832
Год выхода: 1985
Жанр: фэнтези, мелодрама, приключения
Режиссер: Ридли Скотт

В ролях: Том Круз, Миа Сара, Тим Карри, Давид Беннент, Элис Плэйтен, Билли Барти, Корк Хабберт, Питер О’Фэррелл, Киран Шах, Аннабелль Лэньон

Описание:
Злые чары окутали волшебный лес фей и магов, диковинных существ и невиданных созданий. Здесь властвует зловещий Повелитель Тьмы, истребляющий неуловимых единорогов, чтобы повергнуть мир в хаос вечной ночи. Его коварные слуги - гоблины всюду творят свои черные дела, вселяя ужас в невинных обитателей сказочной страны, и теперь только мужественный лесной странник Джек и его отважные друзья смогут избавить свой удивительный мир от жестокого властелина подземного царства мрака, где томится возлюбленная Джека, прекрасная принцесса Лили. Дьявол пытается заполучить молодую невинную девушку. А парнишка пытается спасти Единорога, хранителя Света, от посягательств сил Зла.



Выпущено: США, Великобритания
Продолжительность: 01:53:28
Перевод: Профессиональный (многоголосый закадровый), Профессиональный (двухголосый, закадровый), Авторский одноголосый
Субтитры: Русские (2 вида), Английские
Навигация по главам (Чаптеры): есть (подписаны)

Файл
Качество: BDRip 1080p
Формат: Matroska
Видео: AVC; 1920 X 816 (2.35:1); 13290 Kbps; 23,976 fps;
Аудио №1: Russian; AC3; 48.0 KHz; 448 Kbps; CBR; 6 ch |Профессиональный (двухголосый) - D2Lab|
Аудио №2: Russian; DTS; 48.0 KHz; 1509 Kbps; CBR; 6 ch; 24 bit |Профессиональный (многоголосый, закадровый)|
Аудио №3: Russian; AC3; 48.0 KHz; 192 Kbps; CBR; 2 ch |Любительский (одноголосый)|
Аудио №4: English; DTS; 48.0 KHz; 1509 Kbps; CBR; 6 ch; 24 bit |Оригинал|
Аудио №5: Russian; AC3; 48.0 KHz; 192 Kbps; CBR; 2 ch |Commentary (Rus)|
Аудио №6: English; AC3; 48.0 KHz; 192 Kbps; CBR; 2 ch |Commentary (Eng)|

General
Complete name : X: -= Фильмы =-Легенда (1985. Legend).mkv
Format : Matroska
File size : 13.7 GiB
Duration : 1h 53mn
Overall bit rate : 17.3 Mbps
Movie name : Legend.1985.Director's.Cut.BluRay.1080p.AC3.x264-CHD
Encoded date : UTC 2012-02-17 20:29:41
Writing application : mkvmerge v4.9.1 ('Ich will') сборка от Jul 11 2011 23:53:15
Writing library : libebml v1.2.1 + libmatroska v1.1.1

Video
ID : 1
Format : AVC
Format/Info : Advanced Video Codec
Format profile : High@L4.1
Format settings, CABAC : Yes
Format settings, ReFrames : 5 frames
Muxing mode : Container profile=Unknown@4.1
Codec ID : V_MPEG4/ISO/AVC
Duration : 1h 53mn
Bit rate : 13.3 Mbps
Width : 1 920 pixels
Height : 816 pixels
Display aspect ratio : 2.35:1
Frame rate : 23.976 fps
Color space : YUV
Chroma subsampling : 4:2:0
Bit depth : 8 bits
Scan type : Progressive
Bits/(Pixel*Frame) : 0.354
Stream size : 10.3 GiB (75%)
Title : Legend.1985.Director's.Cut.BluRay.1080p.AC3.x264-CHD
Writing library : x264 core 120 r2146+650 183470d
Encoding settings : cabac=1 / ref=5 / deblock=1:-3:-3 / analyse=0x3:0x113 / me=umh / subme=10 / psy=1 / fade_compensate=0.00 / psy_rd=1.05:0.10 / mixed_ref=1 / me_range=48 / chroma_me=1 / trellis=2 / 8x8dct=1 / cqm=1 / deadzone=21,11 / fast_pskip=0 / chroma_qp_offset=-2 / threads=12 / sliced_threads=0 / nr=0 / decimate=1 / interlaced=0 / bluray_compat=0 / constrained_intra=0 / fgo=0 / bframes=6 / b_pyramid=2 / b_adapt=2 / b_bias=0 / direct=3 / weightb=1 / open_gop=0 / weightp=2 / keyint=250 / keyint_min=23 / scenecut=40 / intra_refresh=0 / rc_lookahead=60 / rc=2pass / mbtree=1 / bitrate=13290 / ratetol=2.0 / qcomp=0.70 / qpmin=3 / qpmax=69 / qpstep=4 / cplxblur=20.0 / qblur=0.5 / vbv_maxrate=40000 / vbv_bufsize=30000 / nal_hrd=none / ip_ratio=1.40 / aq=2:1.00
Language : English

Audio #1
ID : 2
Format : AC-3
Format/Info : Audio Coding 3
Mode extension : CM (complete main)
Codec ID : A_AC3
Duration : 1h 53mn
Bit rate mode : Constant
Bit rate : 448 Kbps
Channel(s) : 6 channels
Channel positions : Front: L C R, Side: L R, LFE
Sampling rate : 48.0 KHz
Bit depth : 16 bits
Stream size : 364 MiB (3%)
Title : DVO [D2Lab]
Language : Russian

Audio #2
ID : 3
Format : DTS
Format/Info : Digital Theater Systems
Codec ID : A_DTS
Duration : 1h 53mn
Bit rate mode : Constant
Bit rate : 1 510 Kbps
Channel(s) : 6 channels
Channel positions : Front: L C R, Side: L R, LFE
Sampling rate : 48.0 KHz
Bit depth : 24 bits
Stream size : 1.20 GiB (9%)
Title : MVO
Language : Russian

Audio #3
ID : 4
Format : AC-3
Format/Info : Audio Coding 3
Mode extension : CM (complete main)
Codec ID : A_AC3
Duration : 1h 53mn
Bit rate mode : Constant
Bit rate : 192 Kbps
Channel(s) : 2 channels
Channel positions : Front: L R
Sampling rate : 48.0 KHz
Bit depth : 16 bits
Stream size : 156 MiB (1%)
Title : VO
Language : Russian

Audio #4
ID : 5
Format : DTS
Format/Info : Digital Theater Systems
Codec ID : A_DTS
Duration : 1h 53mn
Bit rate mode : Constant
Bit rate : 1 510 Kbps
Channel(s) : 6 channels
Channel positions : Front: L C R, Side: L R, LFE
Sampling rate : 48.0 KHz
Bit depth : 24 bits
Stream size : 1.20 GiB (9%)
Title : Original
Language : English

Audio #5
ID : 6
Format : AC-3
Format/Info : Audio Coding 3
Mode extension : CM (complete main)
Codec ID : A_AC3
Duration : 1h 53mn
Bit rate mode : Constant
Bit rate : 192 Kbps
Channel(s) : 2 channels
Channel positions : Front: L R
Sampling rate : 48.0 KHz
Bit depth : 16 bits
Stream size : 156 MiB (1%)
Title : Comments (Rus)
Language : Russian

Audio #6
ID : 7
Format : AC-3
Format/Info : Audio Coding 3
Mode extension : CM (complete main)
Codec ID : A_AC3
Duration : 1h 53mn
Bit rate mode : Constant
Bit rate : 192 Kbps
Channel(s) : 2 channels
Channel positions : Front: L R
Sampling rate : 48.0 KHz
Bit depth : 16 bits
Stream size : 156 MiB (1%)
Title : Comments (Eng)
Language : English

Text #1
ID : 8
Format : UTF-8
Codec ID : S_TEXT/UTF8
Codec ID/Info : UTF-8 Plain Text
Language : Russian

Text #2
ID : 9
Format : UTF-8
Codec ID : S_TEXT/UTF8
Codec ID/Info : UTF-8 Plain Text
Title : SDH
Language : Russian

Text #3
ID : 10
Format : UTF-8
Codec ID : S_TEXT/UTF8
Codec ID/Info : UTF-8 Plain Text
Language : English

Menu
00:00:00.000 : en:Main Titles
00:02:11.590 : en:Darkness
00:05:14.981 : en:Princess Lily
00:10:18.243 : en:Jack
00:14:42.799 : en:The Unicorns
00:23:43.464 : en:A World of Ice
00:30:28.410 : en:Gump & His Friends
00:37:56.608 : en:The Unicorns' Plight
00:52:03.662 : en:Meg Mucklebones
00:57:24.358 : en:Prisoners
01:11:25.406 : en:One of Us
01:16:07.563 : en:The Dark Lord
01:19:46.615 : en:Jack's Plan
01:27:54.186 : en:The Bride of Darkness
01:34:46.014 : en:Sacrifice
01:39:44.395 : en:Darkness Denied
01:41:53.607 : en:Promises to Keep
01:49:15.716 : en:End Titles


_________________
Проголосуй за трекер Открытый торрент трекер - RUS-MEDIA.ORG

Проголосуй Открытый торрент трекер - RUS-MEDIA.ORG


Вернуться к началу
 Профиль Отправить личное сообщение  
 
   Похожие торренты   Автор   Торрент   Размер 
В этой теме нет новых непрочитанных сообщений. Легенда о Билли Джин / The Legend of Billie Jean [Боевик, драма, 1985] BDRip 1080p, Dvo

salma3

35 | 2

9.23 ГБ

В этой теме нет новых непрочитанных сообщений. Тарзан. Легенда / The Legend of Tarzan [боевик, драма, мелодрама, приключения, 2016] BDRip 1080p, Dub [iTunes]

marya111

756 | 76

7.46 ГБ

В этой теме нет новых непрочитанных сообщений. Тaрзан. Легенда / Thе Legend of Tarzan [драма, мелодрама, приключения, 2016] BDRip, Avo [Живов]

salma3

21 | 5

1.46 ГБ

В этой теме нет новых непрочитанных сообщений. Легенда Багера Ванса / The Legend of Bagger Vance [фэнтези, мелодрама, драма, спорт, 2000] WEBRip 1080p, Mvo

salma3

81 | 10

5.87 ГБ

В этой теме нет новых непрочитанных сообщений. Тарзан. Легенда / The Legend of Tarzan ( боевик, драма, мелодрама, приключения, 2016) BDRip-AVC от HELLYWOOD | Лицензия

marya111

694 | 32

2.18 ГБ

В этой теме нет новых непрочитанных сообщений. Тарзан. Легенда / The Legend of Tarzan (боевик, драма, мелодрама, приключения, 2016) BDRip от HQCLUB | D | Лицензия

marya111

210 | 14

2.18 ГБ

В этой теме нет новых непрочитанных сообщений. Недооформлен Тарзан. Легенда / The Legend of Tarzan ( боевик, драма, мелодрама, приключения, 2016) BDRip от ExKinoRay | Лицензия Данный торрент является блокированным, причина: недооформленный торрент

marya111

0 | 0

1.46 ГБ


Начать новую тему Ответить на тему  [ 1 сообщение ] 




Для Мосгорсуда, Роскомнадзора и рекламодателей:: mosgorsud-torrent[собачка]yandex.ru
cron