Торрент файл
скачать торрент магнет ссылка Добавлен: 09 окт 2018, 12:00
Размер: 10.57 ГБ
Сидеров: 0
Личеров: 0
Статус: (salma3)
Автор

СообщениеДобавлено: 09 окт 2018, 12:00 

Не в сети
Супермодератор
Аватара пользователя
Дата регистрации:
15 фев 2012, 16:44
Возраст: 29
Спасибо: 7401 / 2147
Сообщения: 78594
Год выпуска: 1990
Выпущено: США
Жанр: Драма, мелодрама, комедия
Режиссер: Эмиль Ардолино

В ролях: Том Селлек, Стив Гуттенберг, Тед Дэнсон, Нэнси Трэвис, Робин Уайзмэн, Кристофер Кейзнов, Шила Хэнкок, Фиона Шоу, Джон Босуолл, Джонатан Линн, Сидни Уолш

О фильме: Трое друзей помогают Сильвии воспитывать ее очаровательную дочку и, кажется, ничто не может омрачить их семейного счастья. Но неожиданно женщина уезжает с девочкой в Лондон. Новоиспеченные папаши отправляются в погоню в надежде вернуть беглецов, однако на их пути возникает серьезное препятствие: на берегах туманного Альбиона Сильвию ждет жених. И тогда трое разгневанных отцов объявляют войну наглому самозванцу...

Продолжительность: 01:43:43
Перевод: Профессиональный многоголосый, авторский
Субтитры: Английские
Навигация по главам: Есть

Файл
Качество: WEB-DL 1080p
Видео: MPEG-4 AVC, 12,9 Мбит/сек, 1920x1080, 23,976 кадра/сек
Аудио #1: AC3, 2 ch, 192 Кбит/сек | Русский, профессиональный (многоголосый закадровый)
Аудио #2: AC3, 2 ch, 192 Кбит/сек | Русский, авторский (одноголосый закадровый) Алексей Михалев
Аудио #3: AC3, 2 ch, 192 Кбит/сек | Русский, авторский (одноголосый закадровый) Вартан Дохалов
Аудио #4: AC3, 2 ch, 192 Кбит/сек | Русский, авторский (одноголосый закадровый) Андрей Дольский
Аудио #5: EAC3, 6 ch, 640 Кбит/сек | Английский, оригинал



Общее
Уникальный идентификатор : 237275118194319536034625980306655119949 (0xB281868867314691B01B49B6FFD98A4D)
Полное имя : Трое.мужчин.и.маленькая.леди.1990.WEB-DL.1080p.mkv
Формат : Matroska
Версия формата : Version 2
Размер файла : 10,6 Гбайт
Продолжительность : 1 ч. 43 м.
Режим общего битрейта : Переменный
Общий поток : 14,6 Мбит/сек
Дата кодирования : UTC 2018-10-07 19:53:33
Программа кодирования : mkvmerge v5.8.0 ('No Sleep / Pillow') built on Sep 2 2012 15:37:04
Библиотека кодирования : libebml v1.2.3 + libmatroska v1.3.0

Видео
Идентификатор : 1
Формат : AVC
Формат/Информация : Advanced Video Codec
Профиль формата : High@L4
Настройки формата : CABAC / 4 Ref Frames
Параметр CABAC формата : Да
Параметр RefFrames формата : 4 кадра
Идентификатор кодека : V_MPEG4/ISO/AVC
Продолжительность : 1 ч. 43 м.
Вид битрейта : Переменный
Битрейт : 12,9 Мбит/сек
Максимальный битрейт : 15,0 Мбит/сек
Ширина : 1920 пикселей
Высота : 1080 пикселей
Соотношение сторон : 16:9
Режим частоты кадров : Постоянный
Частота кадров : 23,976 (24000/1001) кадра/сек
Цветовое пространство : YUV
Субдискретизация насыщенности : 4:2:0
Битовая глубина : 8 бит
Тип развёртки : Прогрессивная
Бит/(Пиксели*Кадры) : 0.259
Размер потока : 9,34 Гбайт (88%)
Библиотека кодирования : x264 core 148 r2623 d5b2374
Настройки программы : cabac=1 / ref=4 / deblock=1:-1:-1 / analyse=0x3:0x133 / me=umh / subme=9 / psy=1 / psy_rd=1.00:0.15 / mixed_ref=1 / me_range=24 / chroma_me=1 / trellis=2 / 8x8dct=1 / cqm=0 / deadzone=21,11 / fast_pskip=1 / chroma_qp_offset=-3 / threads=34 / lookahead_threads=5 / sliced_threads=0 / nr=150 / decimate=1 / interlaced=0 / bluray_compat=0 / constrained_intra=0 / bframes=8 / b_pyramid=2 / b_adapt=2 / b_bias=0 / direct=3 / weightb=1 / open_gop=0 / weightp=2 / keyint=120 / keyint_min=61 / scenecut=0 / intra_refresh=0 / rc_lookahead=120 / rc=crf / mbtree=1 / crf=18.0 / qcomp=0.60 / qpmin=0 / qpmax=69 / qpstep=4 / vbv_maxrate=15000 / vbv_bufsize=31250 / crf_max=0.0 / nal_hrd=vbr / filler=0 / ip_ratio=1.40 / aq=3:1.00
Язык : English
По умолчанию : Да
Принудительно : Нет
Цветовой диапазон : Limited
Основные цвета : BT.709
Характеристики трансфера : BT.709
Коэффициенты матрицы : BT.709

Аудио #1
Идентификатор : 2
Формат : AC-3
Формат/Информация : Audio Coding 3
Идентификатор кодека : A_AC3
Продолжительность : 1 ч. 43 м.
Вид битрейта : Постоянный
Битрейт : 192 Кбит/сек
Каналы : 2 канала
Расположение каналов : Front: L R
Частота : 48,0 КГц
Частота кадров : 31,250 кадров/сек (1536 SPF)
Битовая глубина : 16 бит
Метод сжатия : С потерями
Размер потока : 142 Мбайт (1%)
Заголовок : MVO
Язык : Russian
По умолчанию : Да
Принудительно : Нет

Аудио #2
Идентификатор : 3
Формат : AC-3
Формат/Информация : Audio Coding 3
Идентификатор кодека : A_AC3
Продолжительность : 1 ч. 43 м.
Вид битрейта : Постоянный
Битрейт : 192 Кбит/сек
Каналы : 2 канала
Расположение каналов : Front: L R
Частота : 48,0 КГц
Частота кадров : 31,250 кадров/сек (1536 SPF)
Битовая глубина : 16 бит
Метод сжатия : С потерями
Размер потока : 142 Мбайт (1%)
Заголовок : AVO | А. Михалев
Язык : Russian
По умолчанию : Нет
Принудительно : Нет

Аудио #3
Идентификатор : 4
Формат : AC-3
Формат/Информация : Audio Coding 3
Идентификатор кодека : A_AC3
Продолжительность : 1 ч. 43 м.
Вид битрейта : Постоянный
Битрейт : 192 Кбит/сек
Каналы : 2 канала
Расположение каналов : Front: L R
Частота : 48,0 КГц
Частота кадров : 31,250 кадров/сек (1536 SPF)
Битовая глубина : 16 бит
Метод сжатия : С потерями
Размер потока : 142 Мбайт (1%)
Заголовок : AVO | В. Дохалов
Язык : Russian
По умолчанию : Нет
Принудительно : Нет

Аудио #4
Идентификатор : 5
Формат : AC-3
Формат/Информация : Audio Coding 3
Идентификатор кодека : A_AC3
Продолжительность : 1 ч. 43 м.
Вид битрейта : Постоянный
Битрейт : 192 Кбит/сек
Каналы : 2 канала
Расположение каналов : Front: L R
Частота : 48,0 КГц
Частота кадров : 31,250 кадров/сек (1536 SPF)
Битовая глубина : 16 бит
Метод сжатия : С потерями
Размер потока : 142 Мбайт (1%)
Заголовок : AVO | А. Дольский
Язык : Russian
По умолчанию : Нет
Принудительно : Нет

Аудио #5
Идентификатор : 6
Формат : E-AC-3
Формат/Информация : Enhanced Audio Coding 3
Идентификатор кодека : A_EAC3
Продолжительность : 1 ч. 43 м.
Вид битрейта : Постоянный
Битрейт : 640 Кбит/сек
Каналы : 6 каналов
Расположение каналов : Front: L C R, Side: L R, LFE
Частота : 48,0 КГц
Частота кадров : 187,500 кадров/сек (256 SPF)
Метод сжатия : С потерями
Размер потока : 475 Мбайт (4%)
Заголовок : Original
Язык : English
По умолчанию : Нет
Принудительно : Нет

Текст
Идентификатор : 7
Формат : UTF-8
Идентификатор кодека : S_TEXT/UTF8
Идентификатор кодека/Информация : UTF-8 Plain Text
Заголовок : SDH
Язык : English
По умолчанию : Нет
Принудительно : Нет

Меню
00:00:00.000 : en:01. Opening Titles/Family Breakfast
00:08:21.281 : en:02. School Interview
00:16:07.747 : en:03. A Different Kind Of Family
00:23:40.900 : en:04. Uncharted Territory
00:34:48.033 : en:05. Huge Steps
00:43:20.211 : en:06. Bruised Ego
00:48:22.096 : en:07. Return To Bachelorhood
00:55:22.866 : en:08. Peter And Michael Go To England
01:00:51.361 : en:09. Overdressed
01:09:20.036 : en:10. Pileforth Academy For Young Ladies
01:18:52.942 : en:11. Proof
01:26:37.472 : en:12. Sylvia's Wedding
01:40:21.262 : en:13. End Credits
• Исходник видео WEB-DL Amazon.

Сборка:


_________________
Проголосуй за трекер Открытый торрент трекер - RUS-MEDIA.ORG

Проголосуй Открытый торрент трекер - RUS-MEDIA.ORG


Вернуться к началу
 Профиль Отправить личное сообщение  
 
   Похожие торренты   Автор   Торрент   Размер 
В этой теме нет новых непрочитанных сообщений. Трое мужчин и младенец / Three Men and a Baby [комедия, драма, семейный, 1987] WEB-DL 1080p, Mvo

salma3

0 | 0

11.51 ГБ

В этой теме нет новых непрочитанных сообщений. Трое мужчин и младенец / Three Men and a Baby [комедия, драма, семейный, 1987] WEB-DL 1080p, Mvo

salma3

0 | 0

11.42 ГБ

В этой теме нет новых непрочитанных сообщений. Лодка «Счастливая леди» / Леди Удача / Lucky Lady [драма, комедия, 1975] HDTVRip 720p, Mvo

salma3

61 | 21

2.04 ГБ

В этой теме нет новых непрочитанных сообщений. Любовник Леди Чаттерлей / Lady Chatterley’s lover [Драма, мелодрама, 2015] BDRip 1080p, Dvo+Sub

salma3

79 | 51

6.7 ГБ

В этой теме нет новых непрочитанных сообщений. Леди Бёрд / Lady Bird [драма, комедия, 2017] WEBRip 1080p, Dvo

salma3

8 | 6

6.25 ГБ

В этой теме нет новых непрочитанных сообщений. Леди Бёрд / Lady Bird [драма, комедия, 2017] Blu-ray EUR 1080p, Dub [Лицензия]

salma3

0 | 0

33.62 ГБ

В этой теме нет новых непрочитанных сообщений. Леди Бёрд / Lady Bird [Драма, комедия, 2017] BDRemux 1080p, Mvo

salma3

0 | 0

14.7 ГБ


Начать новую тему Ответить на тему  [ 1 сообщение ] 




Для Мосгорсуда, Роскомнадзора и рекламодателей:: mosgorsud-torrent[собачка]yandex.ru
cron