Торрент файл
скачать торрент магнет ссылка Добавлен: 20 окт 2018, 21:17
Размер: 9.17 ГБ
Сидеров: 0
Личеров: 0
Статус: (salma3)
Автор

СообщениеДобавлено: 20 окт 2018, 21:17 

Не в сети
Супермодератор
Аватара пользователя
Дата регистрации:
15 фев 2012, 16:44
Возраст: 29
Спасибо: 7393 / 2147
Сообщения: 78044
Год выхода: 2018
Жанр: Фантастика, триллер
Режиссер: Дженнифер Ю

В ролях: Брэдли Уитфорд, Мэнди Мур, Амандла Стенберг, Гвендолин Кристи, Харрис Дикинсон, Марк О'Брайэн, Уоллес Лэнгэм, Патрик Гибсон, Уэйд Уильямс, Голден Брукс, Мия Чех, Скайлан Брукс

О фильме:
После того, как неизвестная болезнь убивает 98% американских детей, 2% выживших, у которых обнаруживаются суперспособности, отправляют в специальные лагеря. 16-летняя девушка сбегает из такого лагеря и присоединяется к группе других подростков, которые скрываются от правительства.



Страна: США
Продолжительность: 01:44:10
Перевод: Дублированный

Файл
Кодек: H.265
Качество: WEBRip-HEVC 2160p
Видео: HEVC HDR, 11.6 Mбит/с, 3840x1608, 23.976 кадр/с
Звук:
Русский (AC3, 6 ch, 384 Кбит/с) / Дублированный (iTunes)
Украинский (AC3, 2 ch, 192 Кбит/с) / Дублированный (iTunes)
Английский (AC3, 6 ch, 384 Кбит/с)
Субтитры: Русские (Форсированные, полные), английские (Full), украинские (Форсированные, полные), немецкие (хардсаб)

Семпл

General
Unique ID : 87316243850930145903248151606235035669 (0x41B07F32A2C9EF25F43D02F8B070F815)
Complete name : C:UsersPublicVideosSample VideosFilmyThe.Darkest.Minds.2018.2160p.HDR.WEBRip.MediaClub.mkv
Format : Matroska
Format version : Version 4
File size : 9.17 GiB
Duration : 1 h 44 min
Overall bit rate : 12.6 Mb/s
Encoded date : UTC 2018-10-20 16:25:46
Writing application : mkvmerge v25.0.0 ('Prog Noir') 64-bit
Writing library : libebml v1.3.6 + libmatroska v1.4.9
Cover : Yes
Attachments : cover.jpg

Video
ID : 1
Format : HEVC
Format/Info : High Efficiency Video Coding
Commercial name : HDR10
Format profile : Main 10@L5@Main
Codec ID : V_MPEGH/ISO/HEVC
Duration : 1 h 44 min
Bit rate : 11.6 Mb/s
Width : 3 840 pixels
Height : 1 608 pixels
Display aspect ratio : 2.40:1
Frame rate mode : Constant
Frame rate : 23.976 (24000/1001) FPS
Color space : YUV
Chroma subsampling : 4:2:0
Bit depth : 10 bits
Bits/(Pixel*Frame) : 0.079
Stream size : 8.46 GiB (92%)
Title : WEBRip-HEVC.2160p.HDR by Silverok
Default : Yes
Forced : No
Color range : Limited
Color primaries : BT.2020
Transfer characteristics : PQ
Matrix coefficients : BT.2020 non-constant
Mastering display color primaries : BT.2020
Mastering display luminance : min: 0.0050 cd/m2, max: 10000 cd/m2
Maximum Content Light Level : 1559 cd/m2
Maximum Frame-Average Light Level : 601 cd/m2

Audio #1
ID : 2
Format : AC-3
Format/Info : Audio Coding 3
Commercial name : Dolby Digital
Codec ID : A_AC3
Duration : 1 h 43 min
Bit rate mode : Constant
Bit rate : 384 kb/s
Channel(s) : 6 channels
Channel layout : L R C LFE Ls Rs
Sampling rate : 48.0 kHz
Frame rate : 31.250 FPS (1536 SPF)
Bit depth : 16 bits
Compression mode : Lossy
Delay relative to video : 20 ms
Stream size : 285 MiB (3%)
Title : Дублированный (iTunes)
Language : Russian
Service kind : Complete Main
Default : Yes
Forced : No

Audio #2
ID : 3
Format : AC-3
Format/Info : Audio Coding 3
Commercial name : Dolby Digital
Codec ID : A_AC3
Duration : 1 h 43 min
Bit rate mode : Constant
Bit rate : 192 kb/s
Channel(s) : 2 channels
Channel layout : L R
Sampling rate : 48.0 kHz
Frame rate : 31.250 FPS (1536 SPF)
Bit depth : 16 bits
Compression mode : Lossy
Delay relative to video : 6 ms
Stream size : 142 MiB (2%)
Title : Дублированный (iTunes)
Language : Ukrainian
Service kind : Complete Main
Default : No
Forced : No

Audio #3
ID : 4
Format : AC-3
Format/Info : Audio Coding 3
Commercial name : Dolby Digital
Codec ID : A_AC3
Duration : 1 h 43 min
Bit rate mode : Constant
Bit rate : 384 kb/s
Channel(s) : 6 channels
Channel layout : L R C LFE Ls Rs
Sampling rate : 48.0 kHz
Frame rate : 31.250 FPS (1536 SPF)
Bit depth : 16 bits
Compression mode : Lossy
Delay relative to video : 20 ms
Stream size : 285 MiB (3%)
Language : English
Service kind : Complete Main
Default : No
Forced : No

Text #1
ID : 5
Format : UTF-8
Codec ID : S_TEXT/UTF8
Codec ID/Info : UTF-8 Plain Text
Duration : 1 h 40 min
Bit rate : 0 b/s
Count of elements : 14
Stream size : 524 Bytes (0%)
Title : Forced
Language : Russian
Default : Yes
Forced : Yes

Text #2
ID : 6
Format : UTF-8
Codec ID : S_TEXT/UTF8
Codec ID/Info : UTF-8 Plain Text
Duration : 1 h 42 min
Bit rate : 73 b/s
Count of elements : 1279
Stream size : 55.0 KiB (0%)
Title : Full
Language : Russian
Default : No
Forced : No

Text #3
ID : 7
Format : UTF-8
Codec ID : S_TEXT/UTF8
Codec ID/Info : UTF-8 Plain Text
Duration : 1 h 36 min
Bit rate : 64 b/s
Count of elements : 1366
Stream size : 45.8 KiB (0%)
Title : Full
Language : English
Default : No
Forced : No

Text #4
ID : 8
Format : PGS
Muxing mode : zlib
Codec ID : S_HDMV/PGS
Codec ID/Info : Picture based subtitle format used on BDs/HD-DVDs
Duration : 1 h 40 min
Bit rate : 331 b/s
Count of elements : 12
Stream size : 244 KiB (0%)
Title : Forced
Language : Ukrainian
Default : No
Forced : No

Text #5
ID : 9
Format : PGS
Muxing mode : zlib
Codec ID : S_HDMV/PGS
Codec ID/Info : Picture based subtitle format used on BDs/HD-DVDs
Duration : 1 h 42 min
Bit rate : 41.1 kb/s
Count of elements : 2582
Stream size : 30.1 MiB (0%)
Title : Full
Language : Ukrainian
Default : No
Forced : No


Релиз от: | Silverok


_________________
Проголосуй за трекер Открытый торрент трекер - RUS-MEDIA.ORG

Проголосуй Открытый торрент трекер - RUS-MEDIA.ORG


Вернуться к началу
 Профиль Отправить личное сообщение  
 
   Похожие торренты   Автор   Торрент   Размер 
В этой теме нет новых непрочитанных сообщений. Тёмные отражения / The Darkest Minds [Фантастика, триллер, 2018] WEB-DLRip, Dub [iTunes]

salma3

0 | 0

748.57 МБ

В этой теме нет новых непрочитанных сообщений. Тёмные отражения / The Darkest Minds [Фантастика, триллер, 2018] WEB-DL 720p, Dub [iTunes]

salma3

232 | 120

3.56 ГБ

В этой теме нет новых непрочитанных сообщений. Тёмные отражения / The Darkest Minds [Фантастика, триллер, 2018] BDRip-AVC, Dub [iTunes]

salma3

0 | 0

2.04 ГБ

В этой теме нет новых непрочитанных сообщений. Тёмные отражения / The Darkest Minds [Фантастика, триллер, 2018] WEB-DLRip, Dub [iTunes]

salma3

149 | 72

1.46 ГБ

В этой теме нет новых непрочитанных сообщений. Тёмные отражения / The Darkest Minds [Фантастика, триллер, 2018] WEB-DLRip-AVC, Dub [iTunes]

salma3

0 | 0

1.97 ГБ

В этой теме нет новых непрочитанных сообщений. Тёмные отражения / The Darkest Minds [Фантастика, триллер, 2018] HDRip, Dub [iTunes]

salma3

0 | 0

748.59 МБ

В этой теме нет новых непрочитанных сообщений. Невинные / The Innocents [S01] [Фантастика, драма, 2018] WEBRip-HEVC 2160p, Mvo [LostFilm, BaibaKo]

salma3

0 | 0

52.61 ГБ


Начать новую тему Ответить на тему  [ 1 сообщение ] 




Для Мосгорсуда, Роскомнадзора и рекламодателей:: mosgorsud-torrent[собачка]yandex.ru
cron