Торрент файл
скачать торрент магнет ссылка Добавлен: 04 ноя 2017, 13:29
Размер: 10.74 ГБ
Сидеров: 23
Личеров: 2
Статус: (salma3)
Автор

СообщениеДобавлено: 04 ноя 2017, 13:29 

Не в сети
Супермодератор
Аватара пользователя
Дата регистрации:
15 фев 2012, 16:44
Возраст: 29
Спасибо: 7400 / 2147
Сообщения: 78391
Год выпуска: 2017
Жанр: Мелодрама, военный, драма, история
Режиссер: Павел Чухрай

В ролях: Юлия Пересильд, Риналь Мухаметов, Карина Каграманян, Сергей Гармаш, Елисей Никандров, Ася Громова, Моника Санторо, Валерия Ткаченко, Андрюс Бялобжескис, Мария Малиновская

О фильме: Он чудом избежал смерти, чтобы вернуться в дом, где родился. В дом, в котором теперь живет любовь всей его жизни. Но надежда на счастье оборачивается страшным открытием. Его возлюбленная – дочь его врага.



Выпущено: Россия, Кинокомпания «Слон»
Продолжительность: 01:46:39
Язык: Русский

Техданные
Качество: BDRip (1080p)
Видео: MPEG-4 AVC, 12266 Kбит/с, 1920x1040, 24 кадр/с
Аудио: Русский (AC3, 6 ch, 640 Кбит/с), (DTS, 6 ch, 1509 Кбит/с)

Озвучивание - (Лицензия)
Сохранены оригинальные чаптеры как на Blu-Ray.

x264 [info]: frame I:992 Avg QP:16.44 size:221867
x264 [info]: frame P:37710 Avg QP:19.08 size:107012
x264 [info]: frame B:114896 Avg QP:20.38 size: 48324
x264 [info]: consecutive B-frames: 2.6% 5.3% 11.4% 28.1% 21.5% 20.0% 8.4% 0.6% 0.7% 0.3% 1.1%
x264 [info]: mb I I16..4: 9.6% 69.0% 21.5%
x264 [info]: mb P I16..4: 4.1% 26.7% 3.0% P16..4: 28.1% 25.3% 5.8% 0.6% 0.0% skip: 6.4%
x264 [info]: mb B I16..4: 1.3% 3.8% 0.5% B16..8: 33.5% 16.4% 2.3% direct:14.9% skip:27.3% L0:40.9% L1:43.1% BI:16.0%
x264 [info]: 8x8 transform intra:74.8% inter:62.8%
x264 [info]: direct mvs spatial:97.1% temporal:2.9%
x264 [info]: coded y,uvDC,uvAC intra: 80.6% 89.5% 71.0% inter: 34.7% 51.6% 27.3%
x264 [info]: i16 v,h,dc,p: 16% 15% 17% 53%
x264 [info]: i8 v,h,dc,ddl,ddr,vr,hd,vl,hu: 9% 8% 12% 9% 12% 12% 12% 12% 15%
x264 [info]: i4 v,h,dc,ddl,ddr,vr,hd,vl,hu: 12% 15% 17% 6% 10% 9% 11% 7% 13%
x264 [info]: i8c dc,h,v,p: 49% 20% 17% 14%
x264 [info]: Weighted P-Frames: Y:2.0% UV:0.6%
x264 [info]: ref P L0: 52.5% 12.1% 25.1% 9.5% 0.9% 0.0%
x264 [info]: ref B L0: 86.9% 10.4% 2.7%
x264 [info]: ref B L1: 93.8% 6.2%
x264 [info]: kb/s:12259.89
Общее
Уникальный идентификатор : 216942353109412256860468520054423201061 (0xA33593D0DFEADBD48233BA92EDFAA525)
Полное имя : D:ЗагрузкиCold.Tango.2017.x264.BDRip.(1080p).OlLanDGroup.mkv
Формат : Matroska
Версия формата : Version 2
Размер файла : 10,7 Гбайт
Продолжительность : 1 ч. 46 м.
Общий поток : 14,4 Мбит/сек
Название фильма : Холодное танго.2017.Rip by: ollan
Дата кодирования : UTC 2017-11-04 08:01:10
Программа кодирования : mkvmerge v5.6.0 ('Kenya Kane') built on May 27 2012 16:44:04
Библиотека кодирования : libebml v1.2.3 + libmatroska v1.3.0
Attachements : Cover - Cold.Tango..png

Видео
Идентификатор : 1
Формат : AVC
Формат/Информация : Advanced Video Codec
Профиль формата : High@L4.1
Параметр CABAC формата : Да
Параметр ReFrames формата : 4 кадра
Идентификатор кодека : V_MPEG4/ISO/AVC
Продолжительность : 1 ч. 46 м.
Битрейт : 12,3 Мбит/сек
Ширина : 1920 пикселей
Высота : 1040 пикселей
Соотношение сторон : 1,85:1
Режим частоты кадров : Постоянный
Частота кадров : 24,000 кадра/сек
Цветовое пространство : YUV
Субдискретизация насыщенности : 4:2:0
Битовая глубина : 8 бит
Тип развёртки : Прогрессивная
Бит/(Пиксели*Кадры) : 0.256
Размер потока : 8,92 Гбайт (83%)
Библиотека кодирования : x264 core 146 r2538 121396c
Настройки программы : cabac=1 / ref=4 / deblock=1:-2:-3 / analyse=0x3:0x133 / me=umh / subme=11 / psy=1 / psy_rd=0.90:0.05 / mixed_ref=1 / me_range=64 / chroma_me=1 / trellis=2 / 8x8dct=1 / cqm=0 / deadzone=21,11 / fast_pskip=0 / chroma_qp_offset=-3 / threads=12 / lookahead_threads=3 / sliced_threads=0 / nr=0 / decimate=0 / interlaced=0 / bluray_compat=0 / constrained_intra=0 / bframes=10 / b_pyramid=2 / b_adapt=2 / b_bias=0 / direct=3 / weightb=1 / open_gop=0 / weightp=2 / keyint=240 / keyint_min=23 / scenecut=40 / intra_refresh=0 / rc_lookahead=40 / rc=2pass / mbtree=0 / bitrate=12266 / ratetol=1.0 / qcomp=0.60 / qpmin=0 / qpmax=69 / qpstep=4 / cplxblur=20.0 / qblur=0.5 / vbv_maxrate=50000 / vbv_bufsize=62500 / nal_hrd=none / filler=0 / ip_ratio=1.40 / pb_ratio=1.30 / aq=1:1.00
Язык : Russian
Default : Да
Forced : Нет

Аудио #1
Идентификатор : 2
Формат : AC-3
Формат/Информация : Audio Coding 3
Расширение режима : CM (complete main)
Параметр Endianness формата : Big
Идентификатор кодека : A_AC3
Продолжительность : 1 ч. 46 м.
Вид битрейта : Постоянный
Битрейт : 640 Кбит/сек
Каналы : 6 каналов
Расположение каналов : Front: L C R, Side: L R, LFE
Частота : 48,0 КГц
Частота кадров : 31,250 кадров/сек (1536 spf)
Метод сжатия : С потерями
Размер потока : 488 Мбайт (4%)
Заголовок : Лицензия
Язык : Russian
Default : Да
Forced : Нет

Аудио #2
Идентификатор : 3
Формат : DTS
Формат/Информация : Digital Theater Systems
Режим : 16
Параметр Endianness формата : Big
Идентификатор кодека : A_DTS
Продолжительность : 1 ч. 46 м.
Вид битрейта : Постоянный
Битрейт : 1509 Кбит/сек
Каналы : 6 каналов
Расположение каналов : Front: L C R, Side: L R, LFE
Частота : 48,0 КГц
Частота кадров : 93,750 кадра/сек (512 spf)
Битовая глубина : 24 бит
Метод сжатия : С потерями
Размер потока : 1,12 Гбайт (10%)
Заголовок : Лицензия
Язык : Russian
Default : Нет
Forced : Нет

Меню
00:00:00.000 : ru:Chapter 01
00:02:23.291 : ru:Chapter 02
00:12:57.625 : ru:Chapter 03
00:24:11.750 : ru:Chapter 04
00:37:37.916 : ru:Chapter 05
00:50:45.708 : ru:Chapter 06
01:04:37.625 : ru:Chapter 07
01:16:17.291 : ru:Chapter 08
01:30:06.250 : ru:Chapter 09






Релиз от: Rip by:


_________________
Проголосуй за трекер Открытый торрент трекер - RUS-MEDIA.ORG

Проголосуй Открытый торрент трекер - RUS-MEDIA.ORG


Вернуться к началу
 Профиль Отправить личное сообщение  
 
   Похожие торренты   Автор   Торрент   Размер 
В этой теме нет новых непрочитанных сообщений. Холодное танго [Мелодрама, военный, драма, история, 2017] BDRip, [Лицензия]

salma3

69 | 6

747.7 МБ

В этой теме нет новых непрочитанных сообщений. Холодное танго [Мелодрама, военный, драма, история, 2017] Blu-Ray 1080p [Лицензия]

salma3

11 | 0

18.19 ГБ

В этой теме нет новых непрочитанных сообщений. Холодное танго [Мелодрама, военный, драма, история, 2017] BDRemux 1080p [Лицензия]

salma3

11 | 2

16.94 ГБ

В этой теме нет новых непрочитанных сообщений. Холодное танго [Мелодрама, военный, драма, история, 2017] WEB-DL 1080р, [iTunes]

salma3

1019 | 125

3.99 ГБ

В этой теме нет новых непрочитанных сообщений. Дюнкерк / Dunkirk [Военный, драма, история, 2017] BDRip 1080p, Dub [IMAX] [Лицензия]

salma3

1425 | 78

11.14 ГБ

В этой теме нет новых непрочитанных сообщений. История призрака / A Ghost Story [Драма, мелодрама, фэнтези, 2017] BDRip 1080p, Dub [Лицензия ]

salma3

56 | 28

9.51 ГБ

В этой теме нет новых непрочитанных сообщений. Дюнкерк / Dunkirk [Военный, драма, история, 2017] BDRip, Dub [IMAX] [Лицензия]

salma3

92 | 14

745.88 МБ


Начать новую тему Ответить на тему  [ 1 сообщение ] 




Для Мосгорсуда, Роскомнадзора и рекламодателей:: mosgorsud-torrent[собачка]yandex.ru
cron