Торрент файл
скачать торрент магнет ссылка Добавлен: 13 окт 2015, 10:56
Размер: 2.88 ГБ
Сидеров: 2253
Личеров: 162
Автор

СообщениеДобавлено: 13 окт 2015, 10:56 

Не в сети
Зам. Админа
Аватара пользователя
Дата регистрации:
02 дек 2010, 12:39
Спасибо: 12656 / 214
Сообщения: 27984
Год выхода: 2015
Жанр: мультфильм, семейный, комедия
Режиссер: Пит Доктер, Роналдо Дель Кармен
В ролях: Льюис Блэк, Минди Кейлинг, Билл Хейдер, Эми Полер, Филлис Смит, Ричард Кайнд, Кейтлин Диас, Дайан Лэйн, Кайл МакЛоклен, Пола Паундстон

О фильме: Райли — обычная 11-летняя школьница, и, как у каждого из нас, ее поведение определяют пять базовых эмоций: Радость, Печаль, Страх, Гнев и Брезгливость. Эмоции живут в сознании девочки и каждый день помогают ей справляться с проблемами, руководя всеми ее поступками. До поры до времени эмоции живут дружно, но вдруг оказывается, что Райли и ее родителям предстоит переезд из небольшого уютного городка в шумный и людный мегаполис. Каждая из эмоций считает, что именно она лучше прочих знает, что нужно делать в этой непростой ситуации, и в голове у девочки наступает полная неразбериха. Чтобы наладить жизнь в большом городе, освоиться в новой школе и подружиться с одноклассниками, эмоциям Райли предстоит снова научиться работать сообща.

Выпущено: США / Pixar Animation Studios, Walt Disney Pictures
Продолжительность: 01:34:50
Озвучивание: Дублированное [iTunes]

Формат: MKV
Качество: WEB-DL 720p
Видео: MPEG-4 AVC, 3878 kb/s, 1280x720
Аудио: AC3, 384 kb/s (6 ch)

Format : Matroska
Format version : Version 4 / Version 2
File size : 2.88 GiB
Duration : 1h 34mn
Overall bit rate : 4 349 Kbps
Encoded date : UTC 2015-10-12 18:11:04
Writing application : mkvmerge v8.3.0 ('Over the Horizon') 64bit
Writing library : libebml v1.3.1 + libmatroska v1.4.2
DURATION : 01:34:50.368000000
NUMBER_OF_FRAMES : 177824
NUMBER_OF_BYTES : 273137664
_STATISTICS_WRITING_APP : mkvmerge v8.3.0 ('Over the Horizon') 64bit
_STATISTICS_WRITING_DATE_UTC : 2015-10-12 18:11:04
_STATISTICS_TAGS : BPS DURATION NUMBER_OF_FRAMES NUMBER_OF_BYTES

Video
ID : 1
Format : AVC
Format/Info : Advanced Video Codec
Format profile : High@L3.1
Format settings, CABAC : No
Format settings, ReFrames : 2 frames
Codec ID : V_MPEG4/ISO/AVC
Duration : 1h 34mn
Bit rate : 3 878 Kbps
Width : 1 280 pixels
Height : 720 pixels
Display aspect ratio : 16:9
Frame rate mode : Constant
Frame rate : 23.976 fps
Color space : YUV
Chroma subsampling : 4:2:0
Bit depth : 8 bits
Scan type : Progressive
Bits/(Pixel*Frame) : 0.176
Stream size : 2.57 GiB (89%)
Language : English
Default : Yes
Forced : No
Color range : Limited
Color primaries : BT.709
Transfer characteristics : BT.709
Matrix coefficients : BT.709

Audio
ID : 2
Format : AC-3
Format/Info : Audio Coding 3
Mode extension : CM (complete main)
Format settings, Endianness : Big
Codec ID : A_AC3
Duration : 1h 34mn
Bit rate mode : Constant
Bit rate : 384 Kbps
Channel(s) : 6 channels
Channel positions : Front: L C R, Side: L R, LFE
Sampling rate : 48.0 KHz
Bit depth : 16 bits
Compression mode : Lossy
Stream size : 260 MiB (9%)
Language : Russian
Default : Yes
Forced : No

Menu
00:00:00.000 : en:1
00:07:22.000 : en:2
00:11:36.000 : en:3
00:15:46.000 : en:4
00:20:02.000 : en:5
00:25:21.000 : en:6
00:26:47.000 : en:7
00:30:07.000 : en:8
00:34:45.000 : en:9
00:36:02.000 : en:10
00:37:45.000 : en:11
00:41:27.000 : en:12
00:43:57.000 : en:13
00:45:19.000 : en:14
00:46:51.000 : en:15
00:50:02.000 : en:16
00:51:34.000 : en:17
00:56:12.000 : en:18
01:00:03.000 : en:19
01:01:17.000 : en:20
01:03:50.000 : en:21
01:06:27.000 : en:22
01:11:15.000 : en:23
01:13:40.000 : en:24
01:15:38.000 : en:25
01:19:58.000 : en:26
01:23:57.000 : en:27
01:26:17.000 : en:28



Вернуться к началу
 Профиль  
 
   Похожие торренты   Автор   Торрент   Размер 
В этой теме нет новых непрочитанных сообщений. Снупи и мелочь пузатая в кино [мультфильм, комедия, приключения, семейный, 2015] WEB-DL 720p, Dub [iTunes]

Dracon

64 | 4

2.97 ГБ

В этой теме нет новых непрочитанных сообщений. Монстры на каникулах 2 / Hotel Transylvania 2 (Генндий Тартаковский) [мультфильм, фэнтези, комедия, семейный, 2015] WEB-DL 720p, Dub [iTunes]

Dracon

1084 | 85

2.98 ГБ

В этой теме нет новых непрочитанных сообщений. Невероятный Блинки Билл / Blinky Bill the Movie [мультфильм, приключения, семейный, 2015] BDRip 720p, Dub [iTunes]

salma3

20 | 5

3.51 ГБ

В этой теме нет новых непрочитанных сообщений. Рэтчет и Кланк: Галактические рейнджеры / Ratchet & Clank [Мультфильм, полнометражный, семейный, 2015] BDRip 720p, Dub [iTunes]

salma3

0 | 1

5.15 ГБ

В этой теме нет новых непрочитанных сообщений. Снупи и мелочь пузатая в кино [мультфильм, комедия, приключения, семейный, 2015] WEB-DLRip, Dub [iTunes]

Dracon

826 | 37

1.37 ГБ

В этой теме нет новых непрочитанных сообщений. Снупи и мелочь пузатая в кино [мультфильм, комедия, приключения, семейный, 2015] WEB-DL 1080p, Dub [iTunes]

Dracon

148 | 15

3.56 ГБ

В этой теме нет новых непрочитанных сообщений. Монстры на каникулах 2 / Hotel Transylvania 2 (Генндий Тартаковский) [мультфильм, фэнтези, комедия, семейный, 2015] WEB-DL 1080p, Dub [iTunes]

Dracon

2453 | 164

3.69 ГБ


Начать новую тему Ответить на тему  [ 1 сообщение ] 




Для Мосгорсуда, Роскомнадзора и рекламодателей:: mosgorsud-torrent[собачка]yandex.ru
cron