Торрент файл
скачать торрент магнет ссылка Добавлен: 27 янв 2017, 19:01
Размер: 5.92 ГБ
Сидеров: 5
Личеров: 1
Автор

СообщениеДобавлено: 27 янв 2017, 19:01 

Не в сети
Дата регистрации:
28 сен 2016, 18:10
Спасибо: 217 / 0
Сообщения: 1995
Информация о фильме
Название: Маленький зоомагазин
Оригинальное название: Littlest Pet Shop
Год выхода: 2012-2013
Страна: США, Канада, DHX Media, Hasbro Studios
Жанр: Мультсериал, комедия, приключения, детский, семейный
Сезон: 1
Продолжительность: 26 х ~ 00:22:01
Перевод: Профессиональный дублированный (Карусель)
Режиссеры: Joel Dickie, Даллас Паркер, Steven Garcia
Роли озвучивали: Эшли Болл, Сэм Винсент, Питер Нью, Кайл Райдаут, Табита Сен-Жермен, Кира Тозер, Николь Оливер, Жослин Ловен, Кэтлин Барр, Шеннон Чан-Кент, ...
Роли дублировали: Денис Некрасов, Евгений Вальц, Ольга Шорохова, Ольга Голованова, Елена Чебатуркина, ...
О фильме: Хотели бы вы уметь разговаривать с любимыми животными? Девочка Блайс открыла в себе такие удивительные способности! Блайс с отцом переезжает в городскую квартиру прямо над зоомагазином, в котором обитают разные виды животных, такие как панда, собака, ёж, ящерица-геккон, скунс и даже мангуст. Приключения начинаются, когда Блайс открывает в себе необычный дар — она может разговаривать с животными. Героиня узнаёт, что каждому из зверей (даже самому маленькому) присущ ярко выраженный характер и уникальные способности. Когда друзья собираются вместе, получается шумная компания, которая любит попеть и потанцевать. С тех пор, как Блайс и животные нашли общий язык, они всё свободное время проводят вместе и у них появляется общая цель — помешать большому зоомагазину конкурентов вытеснить из бизнеса магазин маленьких зверушек.
Сезон 1 (10 ноября 2012 - 27 апреля 2013)
s1e01. Большое приключение Блайс. Ч-1
s1e02. Большое приключение Блайс. Ч-2
s1e03. День сплошных неудач
s1e04. Свободу Гейл!
s1e05. Монетку за улыбку
s1e06. Не твой цвет
s1e07. Рассел решил повеселиться
s1e08. Блайс влюбилась
s1e09. Застрявший ящик
s1e10. Приступ чистоты
s1e11. Книжки и обложки
s1e12. Ящерица, которая умеет танцевать
s1e13. Свет, камера, мангуст!
s1e14. Перемена мест
s1e15. Под сливочным кремом
s1e16. Сладкий фургон
s1e17. Папа-вертолёт
s1e18. Что скрывается в тесте_
s1e19. Что вы сказали_
s1e20. Кондитеры и мошенники
s1e21. Терьеры и тиары
s1e22. Удачи!
s1e23. За закрытой дверью
s1e24. Заклятые друзья
s1e25. Проект Блайс
s1e26. Летняя грусть



Доп. информация:
Официальный сайт / Семпл


Файл
Формат: AVI
Качество: WEB-DLRip
Видео: 720x400 (1.80:1), 23.976 fps, XviD build 65 ~1278 kbps avg, 0.19 bit/pixel
Звук: 48 kHz, AC3 Dolby Digital, 2/0 (L,R) ch, ~192.00 kbps avg
Субтитры: нет
s1e22. Удачи! XviD-merci-.avi
Format : AVI
Format/Info : Audio Video Interleave
File size : 233 MiB
Duration : 22 min 3 s
Overall bit rate : 1 480 kb/s
Writing application : VirtualDubMod 1.5.10.3 | www.virtualdub-fr.org || (build 2550/release)
Writing library : VirtualDubMod build 2550/release
Video
ID : 0
Format : MPEG-4 Visual
Format profile : Advanced Simple@L5
Format settings, BVOP : 1
Format settings, QPel : No
Format settings, GMC : No warppoints
Format settings, Matrix : Default (MPEG)
Codec ID : XVID
Codec ID/Hint : XviD
Duration : 22 min 3 s
Bit rate : 1 278 kb/s
Width : 720 pixels
Height : 400 pixels
Display aspect ratio : 16:9
Frame rate : 23.976 (24000/1001) FPS
Color space : YUV
Chroma subsampling : 4:2:0
Bit depth : 8 bits
Scan type : Progressive
Compression mode : Lossy
Bits/(Pixel*Frame) : 0.185
Stream size : 202 MiB (86%)
Writing library : XviD 65
Audio
ID : 1
Format : AC-3
Format/Info : Audio Coding 3
Mode extension : CM (complete main)
Format settings, Endianness : Big
Codec ID : 2000
Duration : 22 min 3 s
Bit rate mode : Constant
Bit rate : 192 kb/s
Channel(s) : 2 channels
Channel positions : Front: L R
Sampling rate : 48.0 kHz
Frame rate : 31.250 FPS (1536 spf)
Bit depth : 16 bits
Compression mode : Lossy
Stream size : 30.3 MiB (13%)
Alignment : Split accross interleaves
Interleave, duration : 42 ms (1.00 video frame)
Interleave, preload duratio : 500 ms


Релиз от:
Автор релиза: /



Вернуться к началу
 Профиль Отправить личное сообщение  
 
   Похожие торренты   Автор   Торрент   Размер 
В этой теме нет новых непрочитанных сообщений. Маленький зоомагазин [s01] (2012-2013) WEB-DLRip 720p от ExKinoRay | D (Карусель)

marya111

3 | 0

6.74 ГБ

В этой теме нет новых непрочитанных сообщений. Маленький зоомагазин [s01] (2012-2013) WEB-DLRip 1080p от ExKinoRay | D (Карусель)

marya111

0 | 1

11.96 ГБ

В этой теме нет новых непрочитанных сообщений. Маленький зоомагазин [s02] (2014-2013) WEB-DLRip от ExKinoRay | D (Карусель)

marya111

5 | 0

5.92 ГБ

В этой теме нет новых непрочитанных сообщений. Маленький зоомагазин [s02] (2013-2014) WEB-DLRip 1080p от ExKinoRay | D (Карусель)

marya111

0 | 3

11.95 ГБ

В этой теме нет новых непрочитанных сообщений. Маленький зоомагазин [s02] (2013-2014) WEB-DLRip 720p от ExKinoRay | D (Карусель)

marya111

3 | 0

6.71 ГБ

В этой теме нет новых непрочитанных сообщений. Марин и его друзья. Подводные истории / Bubble Marin [s01 + Бонусы] (Мультсериал, мультфильм, приключения, детский, 2014-2015) WEB-DLRip 1080p от ExKinoRay | D (Карусель)

marya111

25 | 6

13.59 ГБ

В этой теме нет новых непрочитанных сообщений. Жила-была царевна [01x01-08 + 10 бонусов] (Мультсериал, рисованный, детский, обучающий, познавательный, 2013-2016) WEB-DLRip от ExKinoRay

marya111

56 | 25

794.05 МБ


Начать новую тему Ответить на тему  [ 1 сообщение ] 




Для Мосгорсуда, Роскомнадзора и рекламодателей:: mosgorsud-torrent[собачка]yandex.ru
cron