Торрент файл
скачать торрент магнет ссылка Добавлен: 27 янв 2017, 19:01
Размер: 1.67 ГБ
Сидеров: 7
Личеров: 1
Автор

СообщениеДобавлено: 27 янв 2017, 19:01 

Не в сети
Дата регистрации:
28 сен 2016, 18:10
Спасибо: 217 / 0
Сообщения: 1996

Информация о фильме
Название: Тима и Тома
Год выпуска: 2015-2016
Страна: Россия, Студия анимации «Петербург»
Жанр: Мультсериал, рисованный, детский, комедия, приключения
Продолжительность: 41 х ~ 00:04:59
Язык: русский
Режиссёры: Андрей Бахурин, Джангир Сулейманов, Олег Мусин, ...
Роли озвучивали: Александра Борисова, Сергей Голубцов, Мария Бахурина, Иван Чапкевич, Соня Татаринова, Марианна Мокшина, Екатерина Астафьева
Описание: Истории из жизни двух друзей — бегемотика Тимы и слонёнка Томы — обаятельных и трогательных малышей, познающих окружающий их мир, в котором возможно всё: встретить пришельца из космоса, найти таинственную пещеру, прямо на глазах вырастить дерево и, играя, превратиться в силача. Представить себя в любой роли и ситуации — для Тимы и Томы нет ничего невозможного, как нет предела и детской фантазии.
01. Не спится
02. Кошелек
03. Посуда
04. Силачи
05. Кто смелый?
06. Девчонок не берем!
07. День Рождения
08. Барабан
09. Большая Уборка
10. Грибной дождик
11. Конкурс рисунков
12. Новогоднее чудо
13. Этикет
14. Пришелец
15. Птичка
16. Снежная история
17. Хрум-хрум
18. Сливы
19. Ночной воришка
20. Плохая примета
21. Клад
22. Кривые цветы
23. Микробы атакуют
24. Поход
25. Кто сильнее?
26. Все наоборот
27. Прятки
28. Пейзаж
29. И так сойдет
30. Ветрянка из банки
31. Принцесса
32. Поручение
33. Укротители
34. Чудо песенка
35. Артистка
36. Раскопки
37. Карета
38. Мешок слона
39. Дочки-матери
40. Остров
41. В гости

Доп. информация:
Семпл
Файл
Формат: MP4
Качество: WEB-DLRip 720p
Видео: MPEG4-AVC, 1280x720 (16:9), 25 fps, ~ 1 116 kbps, 0.048 bit/pixel
Аудио: 44,1 kHz, AАC-LC, 2.0, ~126 kbps
General
Complete name : Q:!Qm-ruТима и ТомаТима и Тома. W-720p-merci-23. Микробы атакуют. HD-merci-.mp4
Format : MPEG-4
Format profile : Base Media / Version 2
Codec ID : mp42 (mp42/isom)
File size : 44.6 MiB
Duration : 4 min 59 s
Overall bit rate mode : Variable
Overall bit rate : 1 247 kb/s
Encoded date : UTC 2016-09-04 05:16:28
Tagged date : UTC 2016-09-04 05:16:28
gsst : 0
gstd : 310056
Video
ID : 1
Format : AVC
Format/Info : Advanced Video Codec
Format profile : Main@L3.1
Format settings, CABAC : Yes
Format settings, ReFrames : 3 frames
Codec ID : avc1
Codec ID/Info : Advanced Video Coding
Duration : 4 min 59 s
Source duration : 4 min 59 s
Bit rate : 1 116 kb/s
Width : 1 280 pixels
Height : 720 pixels
Display aspect ratio : 16:9
Frame rate mode : Constant
Frame rate : 25.000 FPS
Color space : YUV
Chroma subsampling : 4:2:0
Bit depth : 8 bits
Scan type : Progressive
Bits/(Pixel*Frame) : 0.048
Stream size : 39.9 MiB (89%)
Source stream size : 39.9 MiB (89%)
Language : English
Encoded date : UTC 2016-09-04 05:16:28
Tagged date : UTC 2016-09-04 05:16:28
Color range : Limited
Color primaries : BT.709
Transfer characteristics : BT.709
Matrix coefficients : BT.709
mdhd_Duration : 299773
Audio
ID : 2
Format : AAC
Format/Info : Advanced Audio Codec
Format profile : LC
Codec ID : 40
Duration : 4 min 59 s
Bit rate mode : Variable
Bit rate : 126 kb/s
Channel(s) : 2 channels
Channel positions : Front: L R
Sampling rate : 44.1 kHz
Frame rate : 43.066 FPS (1024 spf)
Compression mode : Lossy
Stream size : 4.49 MiB (10%)
Language : English
Encoded date : UTC 2016-09-04 05:16:28
Tagged date : UTC 2016-09-04 05:16:28
mdhd_Duration : 299770


Добавил эпизоды:
+ 40-41 - 11.01.2017


Релиз от:
Автор релиза: /



Вернуться к началу
 Профиль Отправить личное сообщение  
 
   Похожие торренты   Автор   Торрент   Размер 
В этой теме нет новых непрочитанных сообщений. Тима и Тома [01-41] (2015-2016) WEB-DLRip от ExKinoRay

marya111

7 | 2

2.05 ГБ

В этой теме нет новых непрочитанных сообщений. Тима и Тома [01-41] (2015-2016) WEB-DLRip 1080p от ExKinoRay

marya111

11 | 1

2.95 ГБ

В этой теме нет новых непрочитанных сообщений. Тима и Тома [01-39] (Россия, Студия анимации «Петербург», 2015-2016) WEB-DLRip от ExKinoRay

marya111

0 | 38

1.9 ГБ

В этой теме нет новых непрочитанных сообщений. Тима и Тома [01-41] (Мультсериал, рисованный, детский, комедия, приключения, 2015-2016) WEB-DLRip от ExKinoRay

marya111

51 | 12

2 ГБ

В этой теме нет новых непрочитанных сообщений. Ми-ми-мишки [01x01-70,99,100 из 104] (2015-2016) WEB-DLRip 720p от ExKinoRay

marya111

14 | 9

3.16 ГБ

В этой теме нет новых непрочитанных сообщений. Три кота [01-39] ( Мультсериал, детский, приключения, комедия, 2015-2016) WEB-DLRip 720p от ExKinoRay

marya111

79 | 13

1.6 ГБ

В этой теме нет новых непрочитанных сообщений. Три кота [01-38] (Мультсериал, детский, приключения, комедия, 2015-2016) WEB-DLRip 720p от ExKinoRay

marya111

120 | 37

1.55 ГБ


Начать новую тему Ответить на тему  [ 1 сообщение ] 




Для Мосгорсуда, Роскомнадзора и рекламодателей:: mosgorsud-torrent[собачка]yandex.ru
cron