Торрент файл
скачать торрент магнет ссылка Добавлен: 09 дек 2017, 16:54
Размер: 26.43 ГБ
Сидеров: 8
Личеров: 2
Статус: (salma3)
Автор

СообщениеДобавлено: 09 дек 2017, 16:54 

Не в сети
Супермодератор
Аватара пользователя
Дата регистрации:
15 фев 2012, 16:44
Возраст: 29
Спасибо: 7428 / 2147
Сообщения: 80047
Производство: США, Франция, Япония / Illumination Entertainment
Жанр: мультфильм, фантастика, комедия
Режиссер: Пьер Коффан, Крис Рено

Персонажи: Стив Карелл, Кристен Уиг, Бенджамин Брэтт, Миранда Косгров, Расселл Брэнд, Кен Жонг, Стив Куган, Элси Фишер, Дэна Гайер, Мойзес Ариас

Описание:
В то время как Грю, бывший суперзлодей, приспосабливается к семейной жизни и пытается честным трудом зарабатывать в сфере бизнеса, тайные лаборатории Арктики оказываются украденными. Анти-Злодейская лига решает, что она нуждается в помощи Грю и его новобранцев в расследовании.



Релиз от: SUPERSIZE, BLUEBIRD
Продолжительность: 01:37:58
Качество: UHD BDRemux (HDR)
Перевод: Дублированный (Лицензия BD EUR)
Субтитры: Русские (Full-length, Forced), Английские

Видео: HEVC/H.265, 3840x2160p, (16:9), 30.7 Mb/s, 23.976 fps
Аудио: DTS, 6 ch, 768 kbps - Русский
Аудио: AC3, 6 ch, 448 kbps - Украинский, Дубляж
Аудио: AC3, 2 ch, 192 kbps - Украинский, MVO "ICTV"
Аудио: AC3, 2 ch, 192 kbps - Украинский, MVO "NLO TV"
Аудио: DTS-HD MA, 8 ch, 6239 kbps - Английский

General
Unique ID : 226184115763276015782283444745355968119 (0xAA2979E4EC0F93D696D42823AB3CBE77)
Complete name : DESPICABLE_ME_2_BD_UHD_HDR_REMUX-BLUEBIRD.mkv
Format : Matroska
Format version : Version 4 / Version 2
File size : 26.4 GiB
Duration : 1 h 37 min
Overall bit rate : 38.6 Mb/s
Movie name : DESPICABLE_ME_2_BD_UHD_HDR_REMUX-BLUEBIRD
Encoded date : UTC 2017-11-08 02:39:33
Writing application : mkvmerge v16.0.0 ('Protest') 64-bit
Writing library : libebml v1.3.5 + libmatroska v1.4.8
Cover : Yes
Attachments : cover.png

Video
ID : 1
Format : HEVC
Format/Info : High Efficiency Video Coding
Format profile : Main 10@L5.1@High
Codec ID : V_MPEGH/ISO/HEVC
Duration : 1 h 37 min
Bit rate : 30.7 Mb/s
Width : 3 840 pixels
Height : 2 160 pixels
Display aspect ratio : 16:9
Frame rate mode : Constant
Frame rate : 23.976 (24000/1001) FPS
Color space : YUV
Chroma subsampling : 4:2:0 (Type 2)
Bit depth : 10 bits
Bits/(Pixel*Frame) : 0.154
Stream size : 21.0 GiB (80%)
Title : DESPICABLE_ME_2_BD_UHD_HDR_REMUX-BLUEBIRD
Default : Yes
Forced : No
Color range : Limited
Color primaries : BT.2020
Transfer characteristics : SMPTE ST 2084
Matrix coefficients : BT.2020 non-constant
Mastering display color primaries : R: x=0.680000 y=0.320000, G: x=0.265000 y=0.690000, B: x=0.150000 y=0.060000, White point: x=0.312700 y=0.329000
Mastering display luminance : min: 0.0050 cd/m2, max: 4000.0000 cd/m2
Maximum Content Light Level : 994 cd/m2
Maximum Frame-Average Light Level : 553 cd/m2

Audio #1
ID : 2
Format : DTS
Format/Info : Digital Theater Systems
Mode : 16
Format settings, Endianness : Big
Codec ID : A_DTS
Duration : 1 h 37 min
Bit rate mode : Constant
Bit rate : 768 kb/s
Channel(s) : 6 channels
Channel positions : Front: L C R, Side: L R, LFE
Sampling rate : 48.0 kHz
Frame rate : 93.750 FPS (512 SPF)
Bit depth : 24 bits
Compression mode : Lossy
Stream size : 538 MiB (2%)
Title : [DUB] DTS 5.1 @ 768 kbps
Language : Russian
Default : Yes
Forced : No

Audio #2
ID : 3
Format : AC-3
Format/Info : Audio Coding 3
Format settings, Endianness : Big
Codec ID : A_AC3
Duration : 1 h 37 min
Bit rate mode : Constant
Bit rate : 448 kb/s
Channel(s) : 6 channels
Channel positions : Front: L C R, Side: L R, LFE
Sampling rate : 48.0 kHz
Frame rate : 31.250 FPS (1536 SPF)
Bit depth : 16 bits
Compression mode : Lossy
Stream size : 314 MiB (1%)
Title : [DUB] DD 5.1 @ 448 kbps
Language : Ukrainian
Service kind : Complete Main
Default : No
Forced : No

Audio #3
ID : 4
Format : AC-3
Format/Info : Audio Coding 3
Format settings, Endianness : Big
Codec ID : A_AC3
Duration : 1 h 37 min
Bit rate mode : Constant
Bit rate : 192 kb/s
Channel(s) : 2 channels
Channel positions : Front: L R
Sampling rate : 48.0 kHz
Frame rate : 31.250 FPS (1536 SPF)
Bit depth : 16 bits
Compression mode : Lossy
Stream size : 135 MiB (0%)
Title : [MVO] DD 2.0 @ 192 kbps (ICTV)
Language : Ukrainian
Service kind : Complete Main
Default : No
Forced : No

Audio #4
ID : 5
Format : AC-3
Format/Info : Audio Coding 3
Format settings, Endianness : Big
Codec ID : A_AC3
Duration : 1 h 37 min
Bit rate mode : Constant
Bit rate : 192 kb/s
Channel(s) : 2 channels
Channel positions : Front: L R
Sampling rate : 48.0 kHz
Frame rate : 31.250 FPS (1536 SPF)
Bit depth : 16 bits
Compression mode : Lossy
Stream size : 135 MiB (0%)
Title : [MVO] DD 2.0 @ 192 kbps (NLO-TV)
Language : Ukrainian
Service kind : Complete Main
Default : No
Forced : No

Audio #5
ID : 6
Format : DTS
Format/Info : Digital Theater Systems
Format profile : X / MA / Core
Mode : 16
Format settings, Endianness : Big
Codec ID : A_DTS
Duration : 1 h 37 min
Bit rate mode : Variable / Variable / Constant
Bit rate : 6 239 kb/s / 6 239 kb/s / 1 509 kb/s
Channel(s) : Object Based / 8 channels / 6 channels
Channel positions : Object Based / Front: L C R, Side: L R, Back: L R, LFE / Front: L C R, Side: L R, LFE
Sampling rate : / 48.0 kHz / 48.0 kHz
Frame rate : 93.750 FPS (512 SPF)
Bit depth : / 24 bits / 24 bits
Compression mode : / Lossless / Lossy
Stream size : 4.27 GiB (16%)
Title : [ORIGINAL] DTS:X 7.1 @ 6239 kbps
Language : English
Default : No
Forced : No

Text #1
ID : 7
Format : PGS
Codec ID : S_HDMV/PGS
Codec ID/Info : Picture based subtitle format used on BDs/HD-DVDs
Duration : 1 h 36 min
Bit rate : 34.0 kb/s
Count of elements : 1836
Stream size : 23.4 MiB (0%)
Title : Full-length
Language : Russian
Default : No
Forced : No

Text #2
ID : 8
Format : PGS
Codec ID : S_HDMV/PGS
Codec ID/Info : Picture based subtitle format used on BDs/HD-DVDs
Duration : 1 h 33 min
Bit rate : 35.4 kb/s
Count of elements : 2796
Stream size : 23.7 MiB (0%)
Title : Full-length
Language : English
Default : No
Forced : No

Text #3
ID : 9
Format : PGS
Codec ID : S_HDMV/PGS
Codec ID/Info : Picture based subtitle format used on BDs/HD-DVDs
Duration : 1 h 8 min
Bit rate : 359 b/s
Count of elements : 20
Stream size : 180 KiB (0%)
Title : Forced
Language : Russian
Default : Yes
Forced : Yes

Menu
00:00:00.000 : en:Chapter 1
00:03:22.994 : en:Chapter 2
00:08:04.734 : en:Chapter 3
00:15:50.866 : en:Chapter 4
00:18:28.232 : en:Chapter 5
00:24:36.892 : en:Chapter 6
00:30:50.723 : en:Chapter 7
00:34:40.703 : en:Chapter 8
00:40:48.279 : en:Chapter 9
00:46:26.200 : en:Chapter 10
00:51:23.121 : en:Chapter 11
00:56:27.425 : en:Chapter 12
01:00:00.471 : en:Chapter 13
01:03:27.053 : en:Chapter 14
01:08:44.078 : en:Chapter 15
01:14:01.979 : en:Chapter 16
01:18:08.058 : en:Chapter 17
01:22:33.907 : en:Chapter 18
01:27:09.098 : en:Chapter 19
01:30:33.719 : en:Chapter 20


_________________
Проголосуй за трекер Открытый торрент трекер - RUS-MEDIA.ORG

Проголосуй Открытый торрент трекер - RUS-MEDIA.ORG


Вернуться к началу
 Профиль Отправить личное сообщение  
 
   Похожие торренты   Автор   Торрент   Размер 
В этой теме нет новых непрочитанных сообщений. Гадкий я 3 / Despicable Me 3 [Мультфильм, фантастика, боевик, 2017] BDRip 2160p, Dub [4K] [Лицензия]

salma3

23 | 16

14.17 ГБ

В этой теме нет новых непрочитанных сообщений. Гадкий я 3 / Despicable Me 3 [мультфильм, фантастика, боевик, 2017] BDRemux 1080p, Dub [iTunes]

salma3

272 | 103

18.52 ГБ

В этой теме нет новых непрочитанных сообщений. Гадкий я 3 / Despicable Me 3 [Мультфильм, фантастика, боеви, 2017] BDRip, Dub [Лицензия]

salma3

1423 | 186

1.46 ГБ

В этой теме нет новых непрочитанных сообщений. Гадкий я 3 / Despicable Me 3 [мультфильм, фантастика, боевик, 2017] BDRip, Dub [iTunes]

salma3

11400 | 1832

1.42 ГБ

В этой теме нет новых непрочитанных сообщений. Гадкий я 3 / Despicable Me 3 [мультфильм, фантастика, боевик, 2017] WEBRip 1080р, Dub [чистый звук]

salma3

11108 | 4130

3.33 ГБ

В этой теме нет новых непрочитанных сообщений. Гадкий я 3 / Despicable Me 3 [Мультфильм, Фантастика, Боевик, 2017] BDRip 1080p, Dub [3D-Video] [iTunes]

salma3

163 | 140

7.97 ГБ

В этой теме нет новых непрочитанных сообщений. Фердинанд / Ferdinand [Семейный, комедия, мультфильм, 2017] UHD BDRemux 2160p, Dub [Лицензия] [4K]

salma3

3 | 8

41.4 ГБ


Начать новую тему Ответить на тему  [ 1 сообщение ] 




Для Мосгорсуда, Роскомнадзора и рекламодателей:: mosgorsud-torrent[собачка]yandex.ru
cron