Торрент файл
скачать торрент магнет ссылка Добавлен: 07 янв 2018, 15:06
Размер: 746.26 МБ
Сидеров: 83
Личеров: 15
Статус: (salma3)
Автор

СообщениеДобавлено: 07 янв 2018, 15:06 

Не в сети
Супермодератор
Аватара пользователя
Дата регистрации:
15 фев 2012, 16:44
Возраст: 29
Спасибо: 7401 / 2147
Сообщения: 78470
Год выхода: 2004
Жанр: Мультфильм, фэнтези, приключения
Режиссер: Роберт Земекис / Robert Zemeckis

Роли озвучивали: Том Хэнкс, Майкл Джитер, Нона Гей, Питер Сколари, Эдди Дизен, Лесли Хартер Земекис, Чарльз Флайшер, Джош Эли, Марк Мендонка, Роландас Хендрикс

О фильме :
Необыкновенная история о маленьком мальчике, который верит в Санта Клауса, несмотря на то, что все друзья и вся семья в один голос утверждают, что это всего лишь сказка. И однажды искренняя вера мальчика вознаграждается. В канун Рождества у его дома останавливается волшебный поезд "Полярный экспресс" и уносит мальчика в чудесное незабываемое путешествие в гости к Санта Клаусу. И пока Рождественская ночь опускается на спящий мир, пассажиры "Полярного экспресса" мчатся на Северный Полюс, встречая на своем пути приключения и опасности, подстерегающие их в темных лесах, зловещих горах и ледяной тундре..



Выпущено: США | Castle Rock Entertainment
Продолжительность: 01:39:57
Перевод: Профессиональный (полное дублирование) Мосфильм-Мастер

Файл
Формат: MKV
Качество: BDRip-AVC
Видео: MPEG-4 AVC, 784x324, ~ 966 Кбит/с
Аудио: AAC-LC, 2 ch, ~ 76 Кбит/с
Субтитры: Русские, украинские, английские

Общее
Уникальный идентификатор : 178403510211952987123258011354724998023 (0x86374428F76D999C90EA0E93FA529B87)
Полное имя : D:MOVIESThe.Polar.Express.2004.ExKinoRay.mkv
Формат : Matroska
Версия формата : Version 4 / Version 2
Размер файла : 746 Мбайт
Продолжительность : 1 ч. 40 м.
Общий поток : 1043 Кбит/сек
Дата кодирования : UTC 2018-01-07 10:59:47
Программа кодирования : mkvmerge v15.0.0 ('Duel with the Devil') 64-bit
Библиотека кодирования : libebml v1.3.5 + libmatroska v1.4.5

Видео
Идентификатор : 1
Формат : AVC
Формат/Информация : Advanced Video Codec
Профиль формата : High@L4.1
Параметр CABAC формата : Да
Параметр RefFrames формата : 10 кадров
Идентификатор кодека : V_MPEG4/ISO/AVC
Продолжительность : 1 ч. 39 м.
Битрейт : 966 Кбит/сек
Ширина : 784 пикселя
Высота : 324 пикселя
Соотношение сторон : 2,40:1
Режим частоты кадров : Постоянный
Частота кадров : 23,976 (24000/1001) кадра/сек
Цветовое пространство : YUV
Субдискретизация насыщенности : 4:2:0
Битовая глубина : 8 бит
Тип развёртки : Прогрессивная
Бит/(Пиксели*Кадры) : 0.159
Размер потока : 690 Мбайт (92%)
Библиотека кодирования : x264 core 152 r2851 ba24899
Настройки программы : cabac=1 / ref=10 / deblock=1:-3:-3 / analyse=0x3:0x133 / me=umh / subme=11 / psy=1 / psy_rd=1.00:0.07 / mixed_ref=1 / me_range=32 / chroma_me=1 / trellis=2 / 8x8dct=1 / cqm=0 / deadzone=21,11 / fast_pskip=0 / chroma_qp_offset=-3 / threads=6 / lookahead_threads=1 / sliced_threads=0 / nr=0 / decimate=0 / interlaced=0 / bluray_compat=0 / constrained_intra=0 / bframes=10 / b_pyramid=2 / b_adapt=2 / b_bias=0 / direct=3 / weightb=1 / open_gop=0 / weightp=2 / keyint=240 / keyint_min=23 / scenecut=40 / intra_refresh=0 / rc_lookahead=40 / rc=2pass / mbtree=0 / bitrate=966 / ratetol=1.0 / qcomp=0.60 / qpmin=0 / qpmax=69 / qpstep=4 / cplxblur=20.0 / qblur=0.5 / vbv_maxrate=50000 / vbv_bufsize=62500 / nal_hrd=none / filler=0 / ip_ratio=1.40 / pb_ratio=1.30 / aq=1:1.00
Default : Да
Forced : Нет

Аудио
Идентификатор : 2
Формат : AAC
Формат/Информация : Advanced Audio Codec
Профиль формата : LC
Идентификатор кодека : A_AAC
Продолжительность : 1 ч. 40 м.
Битрейт : 76,0 Кбит/сек
Каналы : 2 канала
Расположение каналов : Front: L R
Частота : 48,0 КГц
Частота кадров : 46,875 кадров/сек (1024 SPF)
Метод сжатия : С потерями
Задержка видео : 9 мс.
Размер потока : 54,4 Мбайт (7%)
Язык : Russian
Default : Да
Forced : Нет

Текст #1
Идентификатор : 3
Формат : UTF-8
Идентификатор кодека : S_TEXT/UTF8
Идентификатор кодека/Информация : UTF-8 Plain Text
Продолжительность : 1 ч. 39 м.
Битрейт : 49 бит/сек
ElementCount : 691
Размер потока : 35,8 Кбайт (0%)
Язык : Russian
Default : Нет
Forced : Нет

Текст #2
Идентификатор : 4
Формат : UTF-8
Идентификатор кодека : S_TEXT/UTF8
Идентификатор кодека/Информация : UTF-8 Plain Text
Продолжительность : 1 ч. 38 м.
Битрейт : 49 бит/сек
ElementCount : 824
Размер потока : 35,9 Кбайт (0%)
Язык : Ukrainian
Default : Нет
Forced : Нет

Текст #3
Идентификатор : 5
Формат : UTF-8
Идентификатор кодека : S_TEXT/UTF8
Идентификатор кодека/Информация : UTF-8 Plain Text
Продолжительность : 1 ч. 30 м.
Битрейт : 39 бит/сек
ElementCount : 833
Размер потока : 26,0 Кбайт (0%)
Заголовок : Full
Язык : English
Default : Нет
Forced : Нет

Меню
00:00:00.000 : en:01. Christmas Eve
00:05:07.474 : en:02. All Aboard
00:09:46.920 : en:03. Another Passenger
00:15:16.415 : en:04. Hot Chocolate
00:18:19.765 : en:05. Ticket on the Loose
00:23:08.220 : en:06. Hobo on the Roof
00:28:07.519 : en:07. Look Who's Driving
00:33:43.688 : en:08. Caribou Conversation
00:35:25.290 : en:09. Hitting the Ice
00:41:37.328 : en:10. Foresaken Toys
00:44:45.016 : en:11. When Christmas Comes to Town
00:47:06.157 : en:12. The Polar Express
00:49:18.622 : en:13. Where's the Brake?
00:53:25.869 : en:14. Steven gets a break
00:57:18.435 : en:15. Billy's Present
01:01:08.999 : en:16. Elf Action
01:05:55.785 : en:17. Readying for Santa
01:09:55.191 : en:18. I Believe
01:12:56.205 : en:19. First Gift of Christmas
01:16:28.250 : en:20. Dash Away All!
01:19:37.940 : en:21. Tickets Fully Punched
01:21:51.406 : en:22. What Matters
01:27:10.058 : en:23. For Whom the Bell Rings
01:31:21.142 : en:24. End Credits



Релиз от:


_________________
Проголосуй за трекер Открытый торрент трекер - RUS-MEDIA.ORG

Проголосуй Открытый торрент трекер - RUS-MEDIA.ORG


Вернуться к началу
 Профиль Отправить личное сообщение  
 
   Похожие торренты   Автор   Торрент   Размер 
В этой теме нет новых непрочитанных сообщений. Шанхайский экспресс / Экспресс миллионеров / Foo gwai lit che / Shanghai Express / Millionaires Express [Боевые искусства, комедия, вестерн, 1986] DVD5, Avo+Mvo

salma3

32 | 5

3.96 ГБ

В этой теме нет новых непрочитанных сообщений. Экспресс Фон Райана / Von Ryan's Express [боевик, приключения, военный, 1965] HDRip, Mvo

salma3

26 | 10

1.45 ГБ

В этой теме нет новых непрочитанных сообщений. Полярные приключения / Polar Adventure [Мультфильм, комедия, приключения, семейный, 2015] WEB-DLRip, dUB [iTunes]

salma3

176 | 17

744.81 МБ

В этой теме нет новых непрочитанных сообщений. Полярные приключения / Polar Adventure [Мультфильм, комедия, приключения, семейный, 2015] WEB-DLRip, dUB [iTunes]

salma3

217 | 74

1.46 ГБ

В этой теме нет новых непрочитанных сообщений. Seymore Butts' The Anal Express / Анальный экспресс Сеймура Баттса (Seymore Butts, Seymore Butts) [2004 г., Gonzo, Anal, Black, Oral, Threesomes, DVDRip]

max77777

43 | 11

1.36 ГБ

В этой теме нет новых непрочитанных сообщений. Транс-Европейский экспресс / Trans-Europ-Express [триллер, 1966] BDRemux 1080p, Avo

salma3

1 | 2

26.3 ГБ

В этой теме нет новых непрочитанных сообщений. Полуночный экспресс / Midnight Express [триллер, драма, криминал, биография, 1978] BDRemux 1080p, Dub+Mvo+Avo

salma3

4 | 11

28.09 ГБ


Начать новую тему Ответить на тему  [ 1 сообщение ] 




Для Мосгорсуда, Роскомнадзора и рекламодателей:: mosgorsud-torrent[собачка]yandex.ru
cron