Торрент файл
скачать торрент магнет ссылка Добавлен: 13 апр 2018, 11:17
Размер: 1.37 ГБ
Сидеров: 0
Личеров: 1
Статус: (salma3)
Автор

СообщениеДобавлено: 13 апр 2018, 11:17 

Не в сети
Супермодератор
Аватара пользователя
Дата регистрации:
15 фев 2012, 16:44
Возраст: 29
Спасибо: 7420 / 2147
Сообщения: 79751
Год выхода: 2018
Жанр: мультфильм, фэнтези, боевик
Режиссер: Сэм Лью

В ролях: Дженнифер Карпентер, Тара Стронг, Брюс Гринвуд, Скотт Гордон-Паттерсон, Кари Уорер, Грей ДеЛайл, Джон Ди Маджио, Энтони Хэд, Линкольн Мелчер, Юрий Ловенталь

О фильме:
В альтернативной истории в 1889 году Брюс Уэйн возвращается в Готэм из своего путешествия по Европе. Город викторианской эпохи всё так же привлекает преступников. Череда загадочных и зверских убийств заставляет жителей подозревать, что убийца — Бэтмен. Тёмному Рыцарю бросает вызов самый известный маньяк XIX века — Джек-потрошитель.



Страна: США
Продолжительность: 01:17:04
Перевод: Профессиональный [многоголосый, закадровый] (студия Jaskier)

Файл
Кодек: XviD | Avi
Качество: HDRip
Видео: ~ 2156 kbps, 720x400, 23.976 fps
Аудио Rus: AC3, 384 kb/s (6 ch)



Общее
Полное имя : D:ЯскъерBatman.Gotham.by.Gaslight.2018.HDRip.Jaskier.avi
Формат : AVI
Формат/Информация : Audio Video Interleave
Размер файла : 1,37 Гбайт
Продолжительность : 1 ч. 17 м.
Общий поток : 2549 Кбит/сек
Программа кодирования : VirtualDubMod 1.5.10.3 | http://www.virtualdub-fr.org || (build 2550/release)
Библиотека кодирования : VirtualDubMod build 2550/release

Видео
Идентификатор : 0
Формат : MPEG-4 Visual
Профиль формата : Advanced Simple@L5
Настройки формата : BVOP1 / Custom Matrix
Параметр BVOP формата : 1
Параметр QPel формата : Нет
Параметр GMC формата : Без точки перехода
Параметр матрицы формата : Выборочная
Идентификатор кодека : XVID
Идентификатор кодека/Подсказка : XviD
Продолжительность : 1 ч. 17 м.
Битрейт : 2156 Кбит/сек
Ширина : 720 пикселей
Высота : 400 пикселей
Соотношение сторон : 16:9
Частота кадров : 23,976 (24000/1001) кадра/сек
Цветовое пространство : YUV
Субдискретизация насыщенности : 4:2:0
Битовая глубина : 8 бит
Тип развёртки : Прогрессивная
Метод сжатия : С потерями
Бит/(Пиксели*Кадры) : 0.312
Размер потока : 1,16 Гбайт (85%)
Библиотека кодирования : XviD 73

Аудио
Идентификатор : 1
Формат : AC-3
Формат/Информация : Audio Coding 3
Идентификатор кодека : 2000
Продолжительность : 1 ч. 17 м.
Вид битрейта : Постоянный
Битрейт : 384 Кбит/сек
Каналы : 6 каналов
Расположение каналов : Front: L C R, Side: L R, LFE
Частота : 48,0 КГц
Частота кадров : 31,250 кадров/сек (1536 SPF)
Битовая глубина : 16 бит
Метод сжатия : С потерями
Размер потока : 212 Мбайт (15%)
Выравнивание : Разделение по промежуткам
Продолжительность промежутка : 42 мс. (1,00 видеокадр)
Время предзагрузки промежутка : 500 мс.



_________________
Проголосуй за трекер Открытый торрент трекер - RUS-MEDIA.ORG

Проголосуй Открытый торрент трекер - RUS-MEDIA.ORG


Вернуться к началу
 Профиль Отправить личное сообщение  
 
   Похожие торренты   Автор   Торрент   Размер 
В этой теме нет новых непрочитанных сообщений. Бэтмен: Готэм в газовом свете / Batman: Gotham by Gaslight [мультфильм, фэнтези, боевик, 2018] BDRip 720p, Mvo [Jaskier]

salma3

0 | 1

2.06 ГБ

В этой теме нет новых непрочитанных сообщений. Бэтмен: Готэм в газовом свете / Batman: Gotham by Gaslight [мультфильм, фэнтези, боевик, 2018] BDRip 1080p, Mvo [Jaskier]

salma3

0 | 0

3.67 ГБ

В этой теме нет новых непрочитанных сообщений. Бэтмен: Готэм в газовом свете / Batman: Gotham by Gaslight [мультфильм, фэнтези, боевик, 2018] BDRip 1080p, Mvo [D1production]

salma3

2 | 3

5.57 ГБ

В этой теме нет новых непрочитанных сообщений. Бэтмен: Готэм в газовом свете / Batman: Gotham by Gaslight [мультфильм, фэнтези, боевик, 2018] BDRip 720p, Mvo [D1production]

salma3

17 | 2

3.38 ГБ

В этой теме нет новых непрочитанных сообщений. Бэтмен: Готэм в газовом свете / Batman: Gotham by Gaslight [боевик, история, криминал, мультфильмы, 2018] WEBRip 720p, Dvo [RusFilm]

salma3

0 | 0

933.87 МБ

В этой теме нет новых непрочитанных сообщений. Бэтмен / The LEGO Batman Movie [Мультфильм, фэнтези, боевик, 2017] BDRip 720p, Dub [Лицензия]

salma3

294 | 31

3.88 ГБ

В этой теме нет новых непрочитанных сообщений. Бэтмен против Двуликого / Batman vs. Two-Face [мультфильм, боевик, комедия, 2017] HDRip, Mvo

salma3

86 | 8

1.31 ГБ


Начать новую тему Ответить на тему  [ 1 сообщение ] 




Для Мосгорсуда, Роскомнадзора и рекламодателей:: mosgorsud-torrent[собачка]yandex.ru
cron