Торрент файл
скачать торрент магнет ссылка Добавлен: 22 май 2018, 20:50
Размер: 9.32 ГБ
Сидеров: 0
Личеров: 0
Статус: (salma3)
Автор

СообщениеДобавлено: 22 май 2018, 20:50 

Не в сети
Супермодератор
Аватара пользователя
Дата регистрации:
15 фев 2012, 16:44
Возраст: 29
Спасибо: 7421 / 2147
Сообщения: 79901
Год выхода: 1992-1994
Жанр: Мультфильм, фэнтези, семейный
Режиссер: Джэми Митчелл, Мирчи Мантта

В ролях: Джоди Бенсон, Сэмюэл Э. Райт, Эдан Гросс, Кеннет Марс, Джим Каммингс, Дэнни Кукси, Мэри Кэй Бергман, Энди МакЭфи, Кэт Суси, Дж.Д. Дэниелс

О фильме:
Красочный и добрый мультсериал о приключениях Русалочки, которая живет в глубине океана и мечтает иметь два хвоста, чтоб уметь танцевать, как люди! Ее привлекает все, что связано с людьми, что раздражает ее отца — царя Тритона!



Выпущено: США, Walt Disney Television
Продолжительность: 30х ~00:22:00
Перевод: Дублированный

Файл
Кодек: XviD
Качество: WEB-DLRip
Видео: 720x400 (1.80:1), 25 fps, XviD build 73 ~1800 kbps avg, 0.25 bit/pixel
Звук: 48 kHz, AC3 Dolby Digital, 2/0 (L,R) ch, ~192 kbps

Сэмпл

General
Complete name : D:\01.The.Little.Mermaid..WEB-DLip by ExKinoRay.avi
Format : AVI
Format/Info : Audio Video Interleave
File size : 319 MiB
Duration : 22 min 15 s
Overall bit rate : 2 003 kb/s
Writing application : VirtualDubMod 1.5.10.3 | http://www.virtualdub-fr.org || (build 2550/release)
Writing library : VirtualDubMod build 2550/release

Video
ID : 0
Format : MPEG-4 Visual
Format profile : Advanced Simple@L5
Format settings : BVOP1 / Custom Matrix
Format settings, BVOP : 1
Format settings, QPel : No
Format settings, GMC : No warppoints
Format settings, Matrix : Custom
Codec ID : XVID
Codec ID/Hint : XviD
Duration : 22 min 15 s
Bit rate : 1 801 kb/s
Width : 720 pixels
Height : 400 pixels
Display aspect ratio : 16:9
Frame rate : 25.000 FPS
Color space : YUV
Chroma subsampling : 4:2:0
Bit depth : 8 bits
Scan type : Progressive
Compression mode : Lossy
Bits/(Pixel*Frame) : 0.250
Stream size : 287 MiB (90%)
Writing library : XviD 73

Audio
ID : 1
Format : AC-3
Format/Info : Audio Coding 3
Format settings, Endianness : Big
Codec ID : 2000
Duration : 22 min 15 s
Bit rate mode : Constant
Bit rate : 192 kb/s
Channel(s) : 2 channels
Channel positions : Front: L R
Sampling rate : 48.0 kHz
Frame rate : 31.250 FPS (1536 SPF)
Bit depth : 16 bits
Compression mode : Lossy
Stream size : 30.6 MiB (10%)
Alignment : Split accross interleaves
Interleave, duration : 40 ms (1.00 video frame)
Interleave, preload duratio : 500 ms
Service kind : Complete Main

Релиз от:


_________________
Проголосуй за трекер Открытый торрент трекер - RUS-MEDIA.ORG

Проголосуй Открытый торрент трекер - RUS-MEDIA.ORG


Вернуться к началу
 Профиль Отправить личное сообщение  
 
   Похожие торренты   Автор   Торрент   Размер 
В этой теме нет новых непрочитанных сообщений. Русалочка / The Little Mermaid [S01-03] [мультфильм, фэнтези, семейный, 1992-1994] WEBRip-AVC, Dub

salma3

26 | 11

9.01 ГБ

В этой теме нет новых непрочитанных сообщений. Русалочка / Little Mermaid [фэнтези, драма, мелодрама, 2016] WEB-DLRip, Mvo

salma3

313 | 124

1.37 ГБ

В этой теме нет новых непрочитанных сообщений. Кубо. Легенда о самурае ( мультфильм, фэнтези, приключения, семейный, 2016) WEB-DLRip | звук с TS

marya111

0 | 0

1.46 ГБ

В этой теме нет новых непрочитанных сообщений. Тролли / Trolls (мультфильм, мюзикл, фэнтези, комедия, приключения, семейный, 2016) WEB-DLRip от Scarabey | iTunes

marya111

6588 | 946

1.45 ГБ

В этой теме нет новых непрочитанных сообщений. Монстры на каникулах 2 / Hotel Transylvania 2 (Генндий Тартаковский) [мультфильм, фэнтези, комедия, семейный, 2015] WED-DLRip-AVC, Dub [Лицензия / iTunes]

Dracon

607 | 221

1.58 ГБ

В этой теме нет новых непрочитанных сообщений. Том и Джерри: Фильм / Tom and Jerry: The Movie [Мультфильм, Семейный, 1992] DVDRip-AVC, Dub

salma3

214 | 60

1.57 ГБ

В этой теме нет новых непрочитанных сообщений. Белоснежка / Snow White [Мультфильм, семейный, сказка, 1994] HDDVDRip, Dub

salma3

0 | 0

741.52 МБ


Начать новую тему Ответить на тему  [ 1 сообщение ] 




Для Мосгорсуда, Роскомнадзора и рекламодателей:: mosgorsud-torrent[собачка]yandex.ru
cron