Торрент файл
скачать торрент магнет ссылка Добавлен: 12 дек 2016, 13:39
Размер: 4.36 ГБ
Сидеров: 511
Личеров: 193
Автор

СообщениеДобавлено: 12 дек 2016, 13:39 

Не в сети
Дата регистрации:
28 сен 2016, 18:10
Спасибо: 217 / 0
Сообщения: 1995
Информация о фильме
Оригинальное название: Опекун
Год выпуска: 2016
Жанр: Детектив
Режиссер: Карен Захаров
В ролях: Екатерина Климова, Гела Месхи, Анастасия Панина, Артур Ваха, Юрий Беляев, Юлия Галкина, Татьяна Мазур, Дмитрий Родонов, Виктор Конухин, Вероника Лысакова, Владимир Потапов, Софья Хилькова, Роман Синицын
О фильме:
Из могилы героя русско-турецкой войны генерала Мещерякова похищены ордена, наградное золотое оружие и раритеты, представляющие материальную и историческую ценность. Распутать дело поручают майору полиции, начальнику следственного отдела РОВД Ольге Николаевой. Николаева опытна и хитра, но одинока, что беспокоит её мать. По дороге к ней Ольга попадает в странную аварию и получает травму головы. Очевидцем преступления становится молодой человек Иван (Гела Месхи). Он отвозит Ольгу в ближайшую больницу и загадочным образом исчезает.

Страна: Россия
Студия: Кинокомпания «Пирамида»
Продолжительность: 8 x ~ 00:45:00
Перевод: Не требуется
Файл
Формат: avi
Качество: HDTVRip
Видео: XviD build 73, 592x336 (16:9), 25.000 fps, ~ 750 Kbps (~ 0.150 bit/pixel)
Звук: 48.0 kHz, MP3, 2/0 ch, 128 kbps
Субтитры: нет
General
Complete name : Opekun.2016.XviD.HDTVRip.GeneralFilmOpekun.01.avi
Format : AVI
Format/Info : Audio Video Interleave
File size : 279 MiB
Duration : 43mn 56s
Overall bit rate : 888 Kbps
Writing application : VirtualDubMod 1.5.10.3 | www.virtualdub-fr.org || (build 2550/release)
Writing library : VirtualDubMod build 2550/release
Video
ID : 0
Format : MPEG-4 Visual
Format profile : Advanced Simple@L5
Format settings, BVOP : 1
Format settings, QPel : Yes
Format settings, GMC : No warppoints
Format settings, Matrix : Custom
Codec ID : XVID
Codec ID/Hint : XviD
Duration : 43mn 56s
Bit rate : 750 Kbps
Width : 592 pixels
Height : 336 pixels
Display aspect ratio : 16:9
Frame rate : 25.000 fps
Color space : YUV
Chroma subsampling : 4:2:0
Bit depth : 8 bits
Scan type : Progressive
Compression mode : Lossy
Bits/(Pixel*Frame) : 0.151
Stream size : 236 MiB (84%)
Writing library : XviD 73
Audio
ID : 1
Format : MPEG Audio
Format version : Version 1
Format profile : Layer 3
Codec ID : 55
Codec ID/Hint : MP3
Duration : 43mn 56s
Bit rate mode : Constant
Bit rate : 128 Kbps
Channel(s) : 2 channels
Sampling rate : 48.0 KHz
Compression mode : Lossy
Stream size : 40.2 MiB (14%)
Alignment : Aligned on interleaves
Interleave, duration : 40 ms (1.00 video frame)
Interleave, preload duratio : 504 ms
Writing library : LAME3.99r
Encoding settings : -m s -V 4 -q 0 -lowpass 17 -b 128






Релиз от:



Вернуться к началу
 Профиль Отправить личное сообщение  
 
   Похожие торренты   Автор   Торрент   Размер 
В этой теме нет новых непрочитанных сообщений. Опекун [01-04 из 16] (2016) HDTVRip от Files-x

marya111

1790 | 924

8.6 ГБ

В этой теме нет новых непрочитанных сообщений. Опекун [01-02 из 16] (2016) HDTVRip-AVC от Files-x

marya111

309 | 145

11.09 ГБ

В этой теме нет новых непрочитанных сообщений. Опекун [01-04 из 16] (2016) HDTVRip 720p от MediaClub

marya111

88 | 63

18.66 ГБ

В этой теме нет новых непрочитанных сообщений. Опекун [01-04 из 16] (Детектив, 2016) HDTVRip 720p от MediaClub

marya111

74 | 17

4.67 ГБ

В этой теме нет новых непрочитанных сообщений. Казаки [01-16 из 16] (2016) HDTVRip от Generalfilm | КПК

marya111

328 | 88

2.86 ГБ

В этой теме нет новых непрочитанных сообщений. Казаки [01-16 из 16] (2016) HDTVRip от GeneralFilm

marya111

498 | 149

4.36 ГБ

В этой теме нет новых непрочитанных сообщений. Моя революция (2016) HDTVRip от GeneralFilm

marya111

1069 | 77

1.45 ГБ


Начать новую тему Ответить на тему  [ 1 сообщение ] 




Для Мосгорсуда, Роскомнадзора и рекламодателей:: mosgorsud-torrent[собачка]yandex.ru
cron