Торрент файл
скачать торрент магнет ссылка Добавлен: 02 янв 2017, 15:42
Размер: 2.9 ГБ
Сидеров: 234
Личеров: 89
Автор

СообщениеДобавлено: 02 янв 2017, 15:42 

Не в сети
Дата регистрации:
28 сен 2016, 18:10
Спасибо: 217 / 0
Сообщения: 1996
Информация о фильме
Оригинальное название: Три королевы
Год выпуска: 2016
Жанр: Детектив, мелодрама
Режиссер: Каринэ Фолиянц
В ролях: Денис Васильев, Александра Власова, Станислав Бондаренко, Софья Лебедева (II), Елена Ксенофонтова, Николай Добрынин, Сергей Соцердотский, Вадим Андреев, Максим Битюков, Вячеслав Гришечкин, Евгений Коряковский, Анатолий Бобер, Игорь Трошин, Виталий Таганов, Людмила Кара-Гяур

О фильме:
«Три королевы» - именно так Михаил Погодин, директор и владелец винного завода города Черноморска, хотел назвать марку своего нового вина, но не успел... Его нашли мёртвым в своей квартире. Виктор, его сын, возвращается в родной город и решает разобраться в причинах смерти отца и сохранить семейный бизнес.



Страна: Россия
Студия: Кинокомпания «Пирамида»
Продолжительность: 8 x ~ 00:52:00
Перевод: Не требуется

Файл
Формат: avi
Качество: HDTVRip
Видео: XviD build 73, 624x352 (16:9), 25.000 fps, ~ 850 Kbps (~ 0.159 bit/pixel)
Звук: 48.0 kHz, MP3, 2/0 ch, 128 kbps
Субтитры: нет

General
Complete name : Tri.Korolevy.2016.XviD.HDTVRip.GeneralFilmTri.Korolevy.01.avi
Format : AVI
Format/Info : Audio Video Interleave
File size : 372 MiB
Duration : 51mn 27s
Overall bit rate : 1 010 Kbps
Writing application : VirtualDubMod 1.5.10.3 | www.virtualdub-fr.org || (build 2550/release)
Writing library : VirtualDubMod build 2550/release

Video
ID : 0
Format : MPEG-4 Visual
Format profile : Advanced Simple@L5
Format settings, BVOP : 1
Format settings, QPel : No
Format settings, GMC : No warppoints
Format settings, Matrix : Custom
Codec ID : XVID
Codec ID/Hint : XviD
Duration : 51mn 27s
Bit rate : 872 Kbps
Width : 624 pixels
Height : 352 pixels
Display aspect ratio : 16:9
Frame rate : 25.000 fps
Color space : YUV
Chroma subsampling : 4:2:0
Bit depth : 8 bits
Scan type : Progressive
Compression mode : Lossy
Bits/(Pixel*Frame) : 0.159
Stream size : 321 MiB (86%)
Writing library : XviD 73

Audio
ID : 1
Format : MPEG Audio
Format version : Version 1
Format profile : Layer 3
Codec ID : 55
Codec ID/Hint : MP3
Duration : 51mn 27s
Bit rate mode : Constant
Bit rate : 128 Kbps
Channel(s) : 2 channels
Sampling rate : 48.0 KHz
Compression mode : Lossy
Stream size : 47.1 MiB (13%)
Alignment : Aligned on interleaves
Interleave, duration : 40 ms (1.00 video frame)
Interleave, preload duratio : 504 ms
Writing library : LAME3.99r
Encoding settings : -m s -V 4 -q 0 -lowpass 17 -b 128






Релиз от:



Вернуться к началу
 Профиль Отправить личное сообщение  
 
   Похожие торренты   Автор   Торрент   Размер 
В этой теме нет новых непрочитанных сообщений. Три королевы [01-08 из 08] [Детектив, мелодрама, 2016] HDTVRip

salma3

1182 | 812

5.78 ГБ

В этой теме нет новых непрочитанных сообщений. Королевы крика / Scream Queens [02x01-06 из 13] (2016) WEB-DL 720p от GeneralFilm | NewStudio

marya111

5 | 12

9.03 ГБ

В этой теме нет новых непрочитанных сообщений. Королевы крика / Scream Queens [02x01-06 из 13] (2016) WEB-DLRip от GeneralFilm | NewStudio

marya111

4 | 16

2.94 ГБ

В этой теме нет новых непрочитанных сообщений. Три королевы [01-06 из 08] ( мелодрама, детектив, 2016) SATRip-AVC от Korsar

marya111

39 | 12

3.79 ГБ

В этой теме нет новых непрочитанных сообщений. Холодное сердце [01-02 из 02] (Мелодрама, 2016) HDTVRip от GeneralFilm

marya111

625 | 98

1.46 ГБ

В этой теме нет новых непрочитанных сообщений. Отогрей мое сердце ( Мелодрама, 2016) HDTVRip от GeneralFilm

marya111

430 | 41

744.74 МБ

В этой теме нет новых непрочитанных сообщений. Опять замуж ( Мелодрама, 2016) HDTVRip от GeneralFilm

marya111

444 | 48

744.73 МБ


Начать новую тему Ответить на тему  [ 1 сообщение ] 




Для Мосгорсуда, Роскомнадзора и рекламодателей:: mosgorsud-torrent[собачка]yandex.ru
cron