Торрент файл
скачать торрент магнет ссылка Добавлен: 05 фев 2017, 12:43
Размер: 5.03 ГБ
Сидеров: 70
Личеров: 8
Статус: (salma3)
Автор

СообщениеДобавлено: 05 фев 2017, 12:43 

Не в сети
Супермодератор
Аватара пользователя
Дата регистрации:
15 фев 2012, 16:44
Возраст: 29
Спасибо: 7393 / 2147
Сообщения: 78044
Перевод: Не требуется, cубтитры: отсутствуют
Формат: HDTVRip-AVC, MKV, H.264, AC3
Страна: Россия
Режиссер: Игорь Штернберг
Жанр: криминал, мелодрама
Всего серий: 8
Продолжительность: 8 х ~ 00:45:00
Год выпуска: 2014

В ролях: Николай Добрынин, Елизавета Арзамасова, Юрий Назаров, Тимофей Каратаев, Игорь Штернберг, Марина Яковлева, Алексей Маслов, Людмила Мальцева, Константин Балакирев, Алексей Артамонов, Игорь Фурманюк,

Описание: Иорданов, некогда успешный художник, зарабатывает на жизнь, подделывания картины. Однажды обман раскрывается, и бандиты-заказчики выставляют Иорданову миллионный счет. Выход находится спонтанно: по телевизору герой видит девушку Наташу, которая разыскивает своего отца, внешне очень похожего на него, к тому же его тезку. Иорданов решает поехать к Наташе в северное село Емельяновку, назваться отцом и «затаиться». Но удастся ли его план?..



Видео: 1024x576 (16:9), 25 fps, AVC MPEG-4 (x264), , ~ 2000 kbps avg, 0.136 bit/pixel
Аудио: 48 kHz, AC3, 2/0 (L,R) ch, ~192.00 kbps avg

Общее
Уникальный идентификатор : 234836702350989142708496387826616720602 (0xB0ABE75988103BBC9A6951A546A15CDA)
Полное имя : C:\Moj.liubimyj.papa.(2016).HDTVRip.(AVC).\01.Moj.liubimyj.papa.(2016).HDTVRip.AVC.mkv
Формат : Matroska
Версия формата : Version 2
Размер файла : 684 Мбайт
Продолжительность : 43 м. 36 с.
Общий поток : 2194 Кбит/сек
Дата кодирования : UTC 2017-01-08 00:49:15
Программа кодирования : mkvmerge v6.1.0 ('Old Devil') built on Mar 4 2013 09:10:42
Библиотека кодирования : libebml v1.3.0 + libmatroska v1.4.0

Видео
Идентификатор : 1
Формат : AVC
Формат/Информация : Advanced Video Codec
Профиль формата :
Параметр CABAC формата : Да
Параметр ReFrames формата : 9 кадров
Идентификатор кодека : V_MPEG4/ISO/AVC
Продолжительность : 43 м. 36 с.
Битрейт : 2000 Кбит/сек
Ширина : 1024 пикселя
Высота : 576 пикселей
Соотношение сторон : 16:9
Режим частоты кадров : Постоянный
Частота кадров : 25,000 кадров/сек
Цветовое пространство : YUV
Субдискретизация насыщенности : 4:2:0
Битовая глубина : 8 бит
Тип развёртки : Прогрессивная
Бит/(Пиксели*Кадры) : 0.136
Размер потока : 611 Мбайт (89%)
Библиотека кодирования : x264 core 130 r2273 b3065e6
Настройки программы : cabac=1 / ref=9 / deblock=1:-2:-1 / analyse=0x3:0x133 / me=umh / subme=9 / psy=1 / psy_rd=1.00:0.15 / mixed_ref=1 / me_range=32 / chroma_me=1 / trellis=2 / 8x8dct=1 / cqm=0 / deadzone=21,11 / fast_pskip=0 / chroma_qp_offset=-3 / threads=6 / lookahead_threads=1 / sliced_threads=0 / nr=0 / decimate=1 / interlaced=0 / bluray_compat=0 / constrained_intra=0 / bframes=9 / b_pyramid=2 / b_adapt=2 / b_bias=0 / direct=1 / weightb=1 / open_gop=0 / weightp=2 / keyint=250 / keyint_min=25 / scenecut=40 / intra_refresh=0 / rc=2pass / mbtree=0 / bitrate=2000 / ratetol=1.0 / qcomp=0.60 / qpmin=0 / qpmax=69 / qpstep=4 / cplxblur=20.0 / qblur=0.5 / ip_ratio=1.40 / pb_ratio=1.30 / aq=2:1.00
Default : Да
Forced : Нет
Цветовой диапазон : Limited
Основные цвета : BT.709
Характеристики трансфера : BT.709
Коэффициенты матрицы : BT.709

Аудио
Идентификатор : 2
Формат : AC-3
Формат/Информация : Audio Coding 3
Расширение режима : CM (complete main)
Параметр Endianness формата : Big
Идентификатор кодека : A_AC3
Продолжительность : 43 м. 36 с.
Вид битрейта : Постоянный
Битрейт : 192 Кбит/сек
Каналы : 2 канала
Расположение каналов : Front: L R
Частота : 48,0 КГц
Частота кадров : 31,250 кадров/сек (1536 spf)
Битовая глубина : 16 бит
Метод сжатия : С потерями
Размер потока : 59,9 Мбайт (9%)
Default : Да
Forced : Нет




_________________
Проголосуй за трекер Открытый торрент трекер - RUS-MEDIA.ORG

Проголосуй Открытый торрент трекер - RUS-MEDIA.ORG


Вернуться к началу
 Профиль Отправить личное сообщение  
 
   Похожие торренты   Автор   Торрент   Размер 
В этой теме нет новых непрочитанных сообщений. Мой чужой ребенок / Ждёт меня любимый [мелодрама, 2016] HDTVRip

salma3

1069 | 66

1.37 ГБ

В этой теме нет новых непрочитанных сообщений. Бирюк (1-4 серии из 4) [драма, криминал, 2014] HDTVRip

salma3

70 | 21

2.15 ГБ

В этой теме нет новых непрочитанных сообщений. Бирюк (1-4 серии из 4) [драма, криминал, 2014] HDTVRip-AVC

salma3

27 | 8

2.68 ГБ

В этой теме нет новых непрочитанных сообщений. Дачный романс (1-2 серии из 2) [мелодрама, комедия, 2014] HDTVRip

salma3

842 | 198

1.51 ГБ

В этой теме нет новых непрочитанных сообщений. Господство / Pоwer / 1-3 сезоны 1-28 серии из 28 [криминал, триллер, драма, 2014-2016] HDTVRip, Mvo

salma3

17 | 10

18.43 ГБ

В этой теме нет новых непрочитанных сообщений. Жестокий ангел / Святой дьявол / Santa Diabla / 1 сезон 1-140 серии из 140 [триллер, драма, мелодрама, криминал, детектив, 2013] HDTVRip, Mvo [SET]

salma3

6 | 19

76.85 ГБ

В этой теме нет новых непрочитанных сообщений. Любимый / Dulaara [Триллер, криминал, детектив, 1994] DVDRip, Mvo

salma3

21 | 9

2.05 ГБ


Начать новую тему Ответить на тему  [ 1 сообщение ] 




Для Мосгорсуда, Роскомнадзора и рекламодателей:: mosgorsud-torrent[собачка]yandex.ru
cron