Торрент файл
скачать торрент магнет ссылка Добавлен: 12 фев 2017, 18:09
Размер: 2.42 ГБ
Сидеров: 13
Личеров: 26
Автор

СообщениеДобавлено: 12 фев 2017, 18:09 

Не в сети
Дата регистрации:
28 сен 2016, 18:10
Спасибо: 217 / 0
Сообщения: 1996
Информация о фильме
Название: Баскетс
Оригинальное название: Baskets
Год выхода: 2017
Жанр: Комедия, драма
Режиссер: Джонатан Крисел
В ролях: Зак Галифианакис, Марта Келли, Луи Андерсон, Сабина Щубба, Эрнест Адамс, Малия Пайлс, Эллен Д. Уильямс, Джулия Грюнберг, Том Проктер, Крис МакЛафлин, Дэн Гилвзан, Роки МакДональд, Майлз Андерсон
О сериале:
В центре сюжета окажется Чип Баскетс - ему предстоит стать чудаковатым калифорнийцем, мечтающем стать профессиональным клоуном. Поступление в престижную парижскую школу, где учат этому ремеслу, он проваливает и устраивается работать на родео.

Выпущено: США, FX Productions
Продолжительность: 4 x ~ 00:28:00
Перевод: Любительский (многоголосый) Sunshine Studio
Файл
Качество: HDTVRip (720p)
Видео: MPEG-4 AVC, ~ 3500 Кбит/с, 1280x720
Аудио: Русский (AC3, 2 ch, 192 Кбит/с)
Размер: 2.42 ГБ
Субтитры: Отсутствуют
Присутствует реклама!

General
Unique ID : 193181252090950293202364386061864431774 (0x91555B1656D11F3290BEA7613A90709E)
Complete name : Baskets.S02E01.720p.SunshineStudio.mkv
Format : Matroska
Format version : Version 4 / Version 2
File size : 676 MiB
Duration : 23mn 26s
Overall bit rate : 4 035 Kbps
Encoded date : UTC 2017-01-20 12:31:42
Writing application : mkvmerge v8.3.0 ('Over the Horizon') 64bit
Writing library : libebml v1.3.1 + libmatroska v1.4.2
Video
ID : 1
Format : AVC
Format/Info : Advanced Video Codec
Format profile : High@L3.1
Format settings, CABAC : Yes
Format settings, ReFrames : 4 frames
Codec ID : V_MPEG4/ISO/AVC
Duration : 23mn 26s
Bit rate : 3 762 Kbps
Width : 1 280 pixels
Height : 720 pixels
Display aspect ratio : 16:9
Frame rate mode : Constant
Frame rate : 23.976 fps
Color space : YUV
Chroma subsampling : 4:2:0
Bit depth : 8 bits
Scan type : Progressive
Bits/(Pixel*Frame) : 0.170
Stream size : 631 MiB (93%)
Writing library : x264 core 130 r2273 b3065e6
Encoding settings : cabac=1 / ref=1 / deblock=1:0:0 / analyse=0x3:0x113 / me=hex / subme=2 / psy=1 / psy_rd=1.00:0.10 / mixed_ref=0 / me_range=16 / chroma_me=1 / trellis=0 / 8x8dct=1 / cqm=0 / deadzone=21,11 / fast_pskip=1 / chroma_qp_offset=0 / threads=6 / lookahead_threads=2 / sliced_threads=0 / nr=0 / decimate=1 / interlaced=0 / bluray_compat=0 / constrained_intra=0 / bframes=3 / b_pyramid=2 / b_adapt=1 / b_bias=0 / direct=1 / weightb=1 / open_gop=0 / weightp=1 / keyint=250 / keyint_min=23 / scenecut=40 / intra_refresh=0 / rc_lookahead=10 / rc=crf / mbtree=1 / crf=17.0 / qcomp=0.60 / qpmin=0 / qpmax=69 / qpstep=4 / ip_ratio=1.40 / aq=1:1.00
Language : English
Default : Yes
Forced : No
Audio
ID : 2
Format : AC-3
Format/Info : Audio Coding 3
Mode extension : CM (complete main)
Format settings, Endianness : Big
Codec ID : A_AC3
Duration : 23mn 26s
Bit rate mode : Constant
Bit rate : 192 Kbps
Channel(s) : 2 channels
Channel positions : Front: L R
Sampling rate : 48.0 KHz
Bit depth : 16 bits
Compression mode : Lossy
Stream size : 32.2 MiB (5%)
Default : Yes
Forced : No

Релиз от:



Вернуться к началу
 Профиль Отправить личное сообщение  
 
   Похожие торренты   Автор   Торрент   Размер 
В этой теме нет новых непрочитанных сообщений. Баскетс / Baskets [02x01 из 10] (2017) WEB-DL 1080p | IdeaFilm

marya111

16 | 8

1.04 ГБ

В этой теме нет новых непрочитанных сообщений. Баскетс / Baskets [S02] [Комедия, драма, 2017] WEB-DL 720p, Mvo [IdeaFilm]

salma3

1 | 9

8.36 ГБ

В этой теме нет новых непрочитанных сообщений. Оттенки синего / Shades of Blue [02x01 из 13] [Драма, криминал, 2017] HDTVRip 720p, Mvo [Sunshine Studio]

salma3

90 | 27

729.28 МБ

В этой теме нет новых непрочитанных сообщений. Детство Шелдона / Young Sheldon [02x01 из 22] [Комедия, 2018] HDTVRip 720p, Dvo [Sunshine Studio]

salma3

0 | 0

386.2 МБ

В этой теме нет новых непрочитанных сообщений. Баскетс / Baskets [S02] [Комедия, драма, 2017] WEB-DLRip, Mvo [IdeaFilm]

salma3

2 | 15

3.37 ГБ

В этой теме нет новых непрочитанных сообщений. Медики Чикаго / Chicago Med [02x01-13 из 18] (Драма, медицина, 2017) HDTVRip | Sunshine Studio

marya111

26 | 93

10.43 ГБ

В этой теме нет новых непрочитанных сообщений. Баскетс / Baskets [S03] [Комедия, драма, 2018] WEBRip 720p, Mvo [BaibaKo]

salma3

0 | 1

8.25 ГБ


Начать новую тему Ответить на тему  [ 1 сообщение ] 




Для Мосгорсуда, Роскомнадзора и рекламодателей:: mosgorsud-torrent[собачка]yandex.ru
cron