Торрент файл
скачать торрент магнет ссылка Добавлен: 15 сен 2017, 02:16
Размер: 2.82 ГБ
Сидеров: 49
Личеров: 16
Автор

СообщениеДобавлено: 15 сен 2017, 02:16 

Не в сети
Супермодератор
Аватара пользователя
Дата регистрации:
15 фев 2012, 16:44
Возраст: 29
Спасибо: 7422 / 2147
Сообщения: 79973
Режиссер: Александр Хван
Жанр: мелодрама
Год выпуска: 2013

В ролях: Анна Невская, Юрий Батурин, Анастасия Матвеева, Павел Крайнов, Натали Старынкевич, Александр Никитин (IV), Ольга Чудакова, Анастасия Бусыгина, Татьяна Чернопятова, Татьяна Васильева (V), Евгений Ермаков, Артём Болотовский, Александра Мельник, Константин Дзямко, Сергей Подольный, Георгий Лежава, Юрий Сазонов, Александр Базоев, Михаил Вологдин, Лариса Бедненко

Описание:Преподаватель итальянского языка Елена однажды пришла к выводу, что в ее жизни больше нет простого женского счастья. Она замужем, раньше между ней и супругом была страсть и любовь, но, увы, быт беспощадно съел их. От развода Елену удерживает только дочь Катя. Но однажды в группе её учеников появляется Андрей. Молодой парень вскружил голову Елене. Она не думает о разнице в возрасте, позабыв об обязательствах и репутации…



Страна: Россия
Продолжительность: 4 x ~ 00:45:00
Язык: Русский

Формат: WEB-DLRip-AVC
Видео: 1024x576 (16:9), 25.000 fps, MPEG4 AVC (х264) , ~ 2000 kbps avg, 0.136 bit/pixel
Аудио: 44 kHz, AC3, 2/0 (L,R) ch, ~192.00 kbps avg

Общее
Уникальный идентификатор : 187606744306801294217138116666387795746 (0x8D23BEA23B1B21C4AA11BF5EF61F0F22)
Полное имя : C:\Цена любви.(2015).WEB-DLRip.(AVC).\02.Цена любви.2015.WEB-DLRip.AVC.mkv
Формат : Matroska
Версия формата : Version 2
Размер файла : 737 Мбайт
Продолжительность : 47 м.
Общий поток : 2191 Кбит/сек
Дата кодирования : UTC 2016-07-27 02:52:53
Программа кодирования : mkvmerge v6.1.0 ('Old Devil') built on Mar 4 2013 09:10:42
Библиотека кодирования : libebml v1.3.0 + libmatroska v1.4.0

Видео
Идентификатор : 1
Формат : AVC
Формат/Информация : Advanced Video Codec
Профиль формата :
Параметр CABAC формата : Да
Параметр ReFrames формата : 9 кадров
Идентификатор кодека : V_MPEG4/ISO/AVC
Продолжительность : 47 м.
Битрейт : 2000 Кбит/сек
Ширина : 1024 пикселя
Высота : 576 пикселей
Соотношение сторон : 16:9
Режим частоты кадров : Постоянный
Частота кадров : 25,000 кадров/сек
Цветовое пространство : YUV
Субдискретизация насыщенности : 4:2:0
Битовая глубина : 8 бит
Тип развёртки : Прогрессивная
Бит/(Пиксели*Кадры) : 0.136
Размер потока : 658 Мбайт (89%)
Библиотека кодирования : x264 core 130 r2273 b3065e6
Настройки программы : cabac=1 / ref=9 / deblock=1:-2:-1 / analyse=0x3:0x133 / me=umh / subme=9 / psy=1 / psy_rd=1.00:0.15 / mixed_ref=1 / me_range=32 / chroma_me=1 / trellis=2 / 8x8dct=1 / cqm=0 / deadzone=21,11 / fast_pskip=0 / chroma_qp_offset=-3 / threads=6 / lookahead_threads=1 / sliced_threads=0 / nr=0 / decimate=1 / interlaced=0 / bluray_compat=0 / constrained_intra=0 / bframes=9 / b_pyramid=2 / b_adapt=2 / b_bias=0 / direct=1 / weightb=1 / open_gop=0 / weightp=2 / keyint=250 / keyint_min=25 / scenecut=40 / intra_refresh=0 / rc=2pass / mbtree=0 / bitrate=2000 / ratetol=1.0 / qcomp=0.60 / qpmin=0 / qpmax=69 / qpstep=4 / cplxblur=20.0 / qblur=0.5 / ip_ratio=1.40 / pb_ratio=1.30 / aq=2:1.00
Default : Да
Forced : Нет
Цветовой диапазон : Limited
Основные цвета : BT.709
Характеристики трансфера : BT.709
Коэффициенты матрицы : BT.709

Аудио
Идентификатор : 2
Формат : AC-3
Формат/Информация : Audio Coding 3
Расширение режима : CM (complete main)
Параметр Endianness формата : Big
Идентификатор кодека : A_AC3
Продолжительность : 47 м.
Вид битрейта : Постоянный
Битрейт : 192 Кбит/сек
Каналы : 2 канала
Расположение каналов : Front: L R
Частота : 44,1 КГц
Метод сжатия : С потерями
Размер потока : 64,6 Мбайт (9%)
Default : Да
Forced : Нет




_________________
Проголосуй за трекер Открытый торрент трекер - RUS-MEDIA.ORG

Проголосуй Открытый торрент трекер - RUS-MEDIA.ORG


Вернуться к началу
 Профиль Отправить личное сообщение  
 
   Похожие торренты   Автор   Торрент   Размер 
В этой теме нет новых непрочитанных сообщений. Цена любви [01-04 из 04] [Мелодрама, 2015] WEB-DLRip 1080p

salma3

23 | 13

6.87 ГБ

В этой теме нет новых непрочитанных сообщений. 40+ или Геометрия любви (1-4 серии из 4) [мелодрама, 2016] WEB-DLRip

salma3

1561 | 524

2.53 ГБ

В этой теме нет новых непрочитанных сообщений. Цена прошлого [01-04 из 04] [Мелодрама, 2018] WEB-DLRip

salma3

0 | 0

2.34 ГБ

В этой теме нет новых непрочитанных сообщений. Цена сахара / Hoe Duur was de Suiker [Драма, история, мелодрама, 2013] BDRip 1080p, Avo

salma3

0 | 0

13.41 ГБ

В этой теме нет новых непрочитанных сообщений. Свиридовы [1-8 серии из 8] [Мелодрама, 2013] WEB-DLRip

Dracon

177 | 22

4.71 ГБ

В этой теме нет новых непрочитанных сообщений. Тариф на прошлое (1-4 серии из 4) [мелодрама, мистика, 2013] WEB-DLRip

salma3

648 | 105

2.58 ГБ

В этой теме нет новых непрочитанных сообщений. За три дня до любви [01-16 из 16] [Мелодрама, 2018] WEB-DLRip-AVC

salma3

0 | 0

9.78 ГБ


Начать новую тему Ответить на тему  [ 1 сообщение ] 




Для Мосгорсуда, Роскомнадзора и рекламодателей:: mosgorsud-torrent[собачка]yandex.ru
cron