Торрент файл
скачать торрент магнет ссылка Добавлен: 25 сен 2017, 10:45
Размер: 20.57 ГБ
Сидеров: 7
Личеров: 8
Статус: (salma3)
Автор

СообщениеДобавлено: 25 сен 2017, 10:45 

Не в сети
Супермодератор
Аватара пользователя
Дата регистрации:
15 фев 2012, 16:44
Возраст: 29
Спасибо: 7420 / 2147
Сообщения: 79751
Год выхода: 2009
Жанр: Ужасы, триллер, приключения
Режиссер: Джон Харрис

В ролях: Шона Макдональд, Дуглас Ходж, Джошуа Даллас, Анна Скеллерн, Кристен Каммингс, Даг Баллард, Джош Коул, Саския Малдер, Натали Джексон Мендоса, Алекс Рид

О фильме:
Захватывающая экспедиция вглубь горных пещер оборачивается для компании подруг ужасной трагедией. Выжить удается лишь одной девушке. Раненая и обезумевшая от страха, она обращается в местную полицию. Шериф не верит в жуткую историю, но снаряжает экспедицию, чтобы проверить ущелье, где якобы произошла трагедия. В результате горного обвала спасатели оказались отрезанными от мира. Они решили найти другой выход в пещере и продолжать спуск. И, чем глубже они спускаются, тем сильнее стынет кровь в жилах, и тем более ясными становятся ужасающие обстоятельства гибели подруг Сары…



Страна: Великобритания
Продолжительность: 01:33:53
Перевод: Дублированный, профессиональный многоголосый, авторский

Файл
Кодек: MPEG-4 AVC
Качество: BDRemux 1080p
Видео: 22992 Кбит/с, 1920x1080, 23.976 кадр/с
Аудио 1: Русский: DTS HD-MA 5.1, 2008 Кбит/сек (DTS Core: 5.1 / 48 kHz / 1509 Кбит/сек / 16-бит) - Дубляж
Аудио 2: Русский: DTS, 3/2 (L,C,R,l,r) + LFE ch, 48 kHz, ~1509 kbps avg - Дубляж
Аудио 3: Русский: AC3, 448 Кбит/сек, 6 каналов, 48.0 КГц - Профессиональный многоголосый
Аудио 4: Русский: DTS, 3/2 (L,C,R,l,r) + LFE ch, 48 kHz, ~1509 kbps avg - Авторский (Д. Есарев)
Аудио 5: Украинский: AC3, 448 Кбит/сек, 6 каналов, 48.0 КГц - Профессиональный многоголосый
Аудио 6: Английский: DTS-HD MA 5.1, 2139 Кбит/сек (DTS Core: 5.1 / 48 kHz / 1509 Кбит/сек / 16-бит) - Оригинал
Аудио 7: Английский: DTS, 320 Кбит/сек, 2 канала, 48.0 КГц - Комментарии
Субтитры: Русские, английские
Главы: есть

- Сьемки фильма начались в мае 2008 года на Ealing Studios в Лондоне. Сцены на открытом воздухе были сняты в лесах городка Суррей на юге Англии.
- Фильм планировали выпустить в мае 2009 года, но в связи с кризисом студией было принято решение перенести дату выхода на несколько месяцев.
- Съемки фильма шли быстрее, чем было предусмотрено по графику.
- Перед тем, как сесть за сценарий Джей Блэйксон, Джеймс Маккарти и Джеймс Уоткинс присоединились к спасательной группе в Йоркшире.
- В фильме Грэг находит камеру со следами крови. Просматривая ее, он видит шесть девушек из фильма «Спуск». Создатели могли бы использовать уже отснятый материал первого фильма, но вместо этого решили, что будет интереснее пригласить всех девушек для того, чтобы отснять эти несколько сцен.

Общее
Уникальный идентификатор : 242735149869310396400291067985150703032 (0xB69D16E0E0B7263584FF0A41FE2575B8)
Полное имя : D:\РЕМУКС с\Спуск-2.BDRemux..mkv
Формат : Matroska
Версия формата : Version 4 / Version 2
Размер файла : 20,6 Гбайт
Продолжительность : 1 ч. 33 м.
Режим общего битрейта : Переменный
Общий поток : 31,4 Мбит/сек
Название фильма : The Descent: Part 2 (2009) - Release for HDCLUB by SbR
Дата кодирования : UTC 2015-09-01 06:09:59
Программа кодирования : mkvmerge v6.1.0 ('Old Devil') built on Mar 4 2013 09:10:42
Библиотека кодирования : libebml v1.3.0 + libmatroska v1.4.0
Attachements : xlog.txt / cover.jpg

Видео
Идентификатор : 1
Формат : AVC
Формат/Информация : Advanced Video Codec
Профиль формата : High@L4.1
Параметр CABAC формата : Да
Параметр ReFrames формата : 4 кадра
Идентификатор кодека : V_MPEG4/ISO/AVC
Продолжительность : 1 ч. 33 м.
Вид битрейта : Переменный
Максимальный битрейт : 39,0 Мбит/сек
Ширина : 1920 пикселей
Высота : 1080 пикселей
Соотношение сторон : 16:9
Режим частоты кадров : Постоянный
Частота кадров : 23,976 кадра/сек
Цветовое пространство : YUV
Субдискретизация насыщенности : 4:2:0
Битовая глубина : 8 бит
Тип развёртки : Прогрессивная
Язык : English
Default : Нет
Forced : Нет
Основные цвета : BT.709
Характеристики трансфера : BT.709
Коэффициенты матрицы : BT.709

Аудио #1
Идентификатор : 2
Формат : DTS
Формат/Информация : Digital Theater Systems
Профиль формата : MA / Core
Режим : 16
Параметр Endianness формата : Big
Идентификатор кодека : A_DTS
Продолжительность : 1 ч. 33 м.
Вид битрейта : Переменный
Битрейт : Неизвестно / 1509 Кбит/сек
Каналы : 6 каналов
Расположение каналов : Front: L C R, Side: L R, LFE
Частота : 48,0 КГц
Битовая глубина : 16 бит
Метод сжатия : Без потерь / Lossy
Заголовок : Дубляж
Язык : Russian
Default : Да
Forced : Нет

Аудио #2
Идентификатор : 3
Формат : DTS
Формат/Информация : Digital Theater Systems
Режим : 16
Параметр Endianness формата : Big
Идентификатор кодека : A_DTS
Продолжительность : 1 ч. 33 м.
Вид битрейта : Постоянный
Битрейт : 1509 Кбит/сек
Каналы : 6 каналов
Расположение каналов : Front: L C R, Side: L R, LFE
Частота : 48,0 КГц
Битовая глубина : 16 бит
Метод сжатия : С потерями
Размер потока : 1013 Мбайт (5%)
Заголовок : Dub, Blu-ray
Язык : Russian
Default : Нет
Forced : Нет

Аудио #3
Идентификатор : 4
Формат : AC-3
Формат/Информация : Audio Coding 3
Расширение режима : CM (complete main)
Параметр Endianness формата : Big
Идентификатор кодека : A_AC3
Продолжительность : 1 ч. 33 м.
Вид битрейта : Постоянный
Битрейт : 448 Кбит/сек
Каналы : 6 каналов
Расположение каналов : Front: L C R, Side: L R, LFE
Частота : 48,0 КГц
Битовая глубина : 16 бит
Метод сжатия : С потерями
Размер потока : 301 Мбайт (1%)
Заголовок : Многоголосый
Язык : Russian
Default : Нет
Forced : Нет

Аудио #4
Идентификатор : 5
Формат : DTS
Формат/Информация : Digital Theater Systems
Режим : 16
Параметр Endianness формата : Big
Идентификатор кодека : A_DTS
Продолжительность : 1 ч. 33 м.
Вид битрейта : Постоянный
Битрейт : 1509 Кбит/сек
Каналы : 6 каналов
Расположение каналов : Front: L C R, Side: L R, LFE
Частота : 48,0 КГц
Битовая глубина : 16 бит
Метод сжатия : С потерями
Размер потока : 1013 Мбайт (5%)
Заголовок : ~1509 kbps avg Одноголосый закадровый, Д. Есарев
Язык : Russian
Default : Нет
Forced : Нет

Аудио #5
Идентификатор : 6
Формат : AC-3
Формат/Информация : Audio Coding 3
Расширение режима : CM (complete main)
Параметр Endianness формата : Big
Идентификатор кодека : A_AC3
Продолжительность : 1 ч. 33 м.
Вид битрейта : Постоянный
Битрейт : 448 Кбит/сек
Каналы : 6 каналов
Расположение каналов : Front: L C R, Side: L R, LFE
Частота : 48,0 КГц
Битовая глубина : 16 бит
Метод сжатия : С потерями
Размер потока : 301 Мбайт (1%)
Заголовок : Украинский
Язык : Ukrainian
Default : Нет
Forced : Нет

Аудио #6
Идентификатор : 7
Формат : DTS
Формат/Информация : Digital Theater Systems
Профиль формата : MA / Core
Режим : 16
Параметр Endianness формата : Big
Идентификатор кодека : A_DTS
Продолжительность : 1 ч. 33 м.
Вид битрейта : Переменный
Битрейт : Неизвестно / 1509 Кбит/сек
Каналы : 6 каналов
Расположение каналов : Front: L C R, Side: L R, LFE
Частота : 48,0 КГц
Битовая глубина : 16 бит
Метод сжатия : Без потерь / Lossy
Заголовок : Оригинал
Язык : English
Default : Нет
Forced : Нет

Аудио #7
Идентификатор : 8
Формат : DTS
Формат/Информация : Digital Theater Systems
Режим : 16
Параметр Endianness формата : Big
Идентификатор кодека : A_DTS
Продолжительность : 1 ч. 33 м.
Вид битрейта : Постоянный
Битрейт : 318 Кбит/сек
Каналы : 2 канала
Расположение каналов : Front: L R
Частота : 48,0 КГц
Битовая глубина : 16 бит
Метод сжатия : С потерями
Размер потока : 214 Мбайт (1%)
Заголовок : Комментарии
Язык : English
Default : Нет
Forced : Нет

Текст #1
Идентификатор : 9
Формат : UTF-8
Идентификатор кодека : S_TEXT/UTF8
Идентификатор кодека/Информация : UTF-8 Plain Text
Язык : Russian
Default : Нет
Forced : Нет

Текст #2
Идентификатор : 10
Формат : UTF-8
Идентификатор кодека : S_TEXT/UTF8
Идентификатор кодека/Информация : UTF-8 Plain Text
Язык : English
Default : Нет
Forced : Нет

Меню
00:00:00.000 : en:Opening Credits
00:03:49.062 : en:Survivor
00:10:42.433 : en:Chapel Mine
00:16:23.190 : en:New Entrance
00:20:09.916 : en:Down
00:28:01.888 : en:Flashback
00:32:02.337 : en:Trapped
00:38:37.481 : en:Camera Reveals
00:43:52.295 : en:Escape
00:49:58.704 : en:Radioing For Help
00:54:05.533 : en:Last Message
00:59:02.956 : en:Saved By Juno
01:07:31.630 : en:Finding A Way Out
01:12:19.167 : en:They Are Death
01:18:19.611 : en:Confrontation
01:22:58.765 : en:Working Together



_________________
Проголосуй за трекер Открытый торрент трекер - RUS-MEDIA.ORG

Проголосуй Открытый торрент трекер - RUS-MEDIA.ORG


Вернуться к началу
 Профиль Отправить личное сообщение  
 
   Похожие торренты   Автор   Торрент   Размер 
В этой теме нет новых непрочитанных сообщений. Спуск / The Descent [Ужасы, триллер, приключения, 2005] BDRemux 1080p, Dub

salma3

10 | 2

21.62 ГБ

В этой теме нет новых непрочитанных сообщений. Спуск 2 / The Descent: Part 2 [Приключения, Триллер, Ужасы, 2009] BDRip 720p, Dub [iPad] [Лицензия]

salma3

19 | 7

2.1 ГБ

В этой теме нет новых непрочитанных сообщений. Спуск / The Descent [ужасы, драма, 2005] BDRip 1080p, Dub+Sub

salma3

58 | 51

4.37 ГБ

В этой теме нет новых непрочитанных сообщений. Спуск / The Descent [ужасы, триллер, 2005] HDRip-AVC, Dub+Dvo+Sub

salma3

100 | 24

1.45 ГБ

В этой теме нет новых непрочитанных сообщений. Спуск / The Descent [ужасы, триллер, 2005] BDRip 720p, Dub+Mvo+Avo+Sub

salma3

70 | 13

4.21 ГБ

В этой теме нет новых непрочитанных сообщений. Последний спуск / The Last Descent [драма, 2016] DVDRip, Mvo

salma3

30 | 2

1.37 ГБ

В этой теме нет новых непрочитанных сообщений. Токсичный мститель 2 / The Toxic Avenger, Part II [фантастика, комедия, боевик, ужасы, приключения, 1989] BDRemux 1080p, Avo+Sub

salma3

13 | 11

23.26 ГБ


Начать новую тему Ответить на тему  [ 1 сообщение ] 




Для Мосгорсуда, Роскомнадзора и рекламодателей:: mosgorsud-torrent[собачка]yandex.ru
cron