Торрент файл
скачать торрент магнет ссылка Добавлен: 03 апр 2018, 21:02
Размер: 26.86 ГБ
Сидеров: 0
Личеров: 0
Статус: (salma3)
Автор

СообщениеДобавлено: 03 апр 2018, 21:02 

Не в сети
Супермодератор
Аватара пользователя
Дата регистрации:
15 фев 2012, 16:44
Возраст: 29
Спасибо: 7428 / 2147
Сообщения: 80130
Год выпуска: 2016
Страна: США
Жанр: драма
Продолжительность: ~ 00:54:00

Перевод: Профессиональный (многоголосый закадровый) Кириллица

Режиссёры: Адам Бернштейн, Майкл Трим
В ролях: Даниэль Брикман, Кайл Галлнер, Эд Хиви, Джоанна МакГинли, Джексон Фрейзер, Марк Джеффри Миллер, Ребекка Харрис, Лори Клатшер, Дэвид Дэйл МакКью, Джефф Сейч

Описание: В основе сюжета семейство Фарреллов, которые живут в горах. Эта семья не похожа на все остальные, они тяготеют к уединению и стараются не подпускать близко к своему жилищу посторонних людей. Эти места являются таинственными и даже опасными для обычных людей, которые не привыкли к образу жизни Фарреллов, но это обстоятельство только на руку клану, ведь они не хотят, чтобы их жизнь стала достоянием общественности. Время от времени живописность этих мест привлекает богатых людей, которые мечтают владеть этим отдаленным от цивилизованного мира уголком земли. Но Фарреллы уже не единожды доказывали, что с ними шутки плохи. Пока, что им удавалось держать оборону, но будет ли так всегда? Их традиции и законы были придуманы много лет тому назад, до этого момента им удавалось соблюдать все, но теперь жизнь аутсайдеров изменилась, все больше людей пытается проникнуть на их территорию. Защищая свою землю, Фарреллы перейдут черту, за которой кроются самые ужасные поступки, совершаемые когда-либо человеком.



Качество: WEB-DL 1080p (Netflix) | EDHD
Контейнер: MKV
Видео: AVC, 1920x1080 (16:9), 23.976 fps, 5.6 Mbps (0.113 bit/pixel)
Аудио 1: AC3, 48 KHz, 2 ch, 192 kbps (Кириллица)
Аудио 2: AC3, 48 KHz, 6 ch, 384 kbps (Original)
Субтитры: английские
Реклама: Отсутствует

За видеоряд и многоголоску спасибо veryserg
Complete name : D:Outsiders.S01.1080p.NFOutsiders.S01E01.1080p.NF.mkv
Format : Matroska
Format version : Version 4 / Version 2
File size : 2.33 GiB
Duration : 54 min 0 s
Overall bit rate mode : Variable
Overall bit rate : 6 181 kb/s
Encoded date : UTC 2018-04-03 04:18:40
Writing application : mkvmerge v9.9.0 ('Pick Up') 32bit
Writing library : libebml v1.3.4 + libmatroska v1.4.5

Video
ID : 1
Format : AVC
Format/Info : Advanced Video Codec
Format profile : Main@L4
Format settings : CABAC / 3 Ref Frames
Format settings, CABAC : Yes
Format settings, RefFrames : 3 frames
Codec ID : V_MPEG4/ISO/AVC
Duration : 53 min 59 s
Bit rate mode : Variable
Bit rate : 5 620 kb/s
Maximum bit rate : 8 430 kb/s
Width : 1 920 pixels
Height : 1 080 pixels
Display aspect ratio : 16:9
Frame rate mode : Constant
Frame rate : 23.976 (24000/1001) FPS
Color space : YUV
Chroma subsampling : 4:2:0
Bit depth : 8 bits
Scan type : Progressive
Bits/(Pixel*Frame) : 0.113
Stream size : 2.11 GiB (91%)
Writing library : x264 core 148 r2714 2daf636
Encoding settings : cabac=1 / ref=3 / deblock=1:0:0 / analyse=0x1:0x111 / me=umh / subme=10 / psy=1 / psy_rd=1.00:0.00 / mixed_ref=1 / me_range=24 / chroma_me=1 / trellis=2 / 8x8dct=0 / cqm=0 / deadzone=21,11 / fast_pskip=1 / chroma_qp_offset=-2 / threads=8 / lookahead_threads=1 / sliced_threads=0 / nr=0 / decimate=1 / interlaced=0 / bluray_compat=0 / stitchable=1 / constrained_intra=0 / bframes=2 / b_pyramid=0 / b_adapt=2 / b_bias=0 / direct=3 / weightb=1 / open_gop=0 / weightp=2 / keyint=48 / keyint_min=25 / scenecut=0 / intra_refresh=0 / rc_lookahead=48 / rc=2pass / mbtree=1 / bitrate=5620 / ratetol=1.0 / qcomp=0.50 / qpmin=6 / qpmax=51 / qpstep=4 / cplxblur=20.0 / qblur=0.5 / vbv_maxrate=8430 / vbv_bufsize=11240 / nal_hrd=vbr / filler=0 / ip_ratio=1.40 / aq=1:1.00
Language : English
Default : Yes
Forced : No

Audio #1
ID : 2
Format : AC-3
Format/Info : Audio Coding 3
Format settings, Endianness : Big
Codec ID : A_AC3
Duration : 54 min 0 s
Bit rate mode : Constant
Bit rate : 192 kb/s
Channel(s) : 2 channels
Channel positions : Front: L R
Sampling rate : 48.0 kHz
Frame rate : 31.250 FPS (1536 SPF)
Bit depth : 16 bits
Compression mode : Lossy
Stream size : 74.2 MiB (3%)
Language : Russian
Service kind : Complete Main
Default : Yes
Forced : No

Audio #2
ID : 3
Format : AC-3
Format/Info : Audio Coding 3
Format settings, Endianness : Big
Codec ID : A_AC3
Duration : 54 min 0 s
Bit rate mode : Constant
Bit rate : 384 kb/s
Channel(s) : 6 channels
Channel positions : Front: L C R, Side: L R, LFE
Sampling rate : 48.0 kHz
Frame rate : 31.250 FPS (1536 SPF)
Bit depth : 16 bits
Compression mode : Lossy
Stream size : 148 MiB (6%)
Language : English
Service kind : Complete Main
Default : No
Forced : No

Text
ID : 4
Format : UTF-8
Codec ID : S_TEXT/UTF8
Codec ID/Info : UTF-8 Plain Text
Duration : 52 min 31 s
Bit rate : 55 b/s
Count of elements : 806
Stream size : 21.4 KiB (0%)
Language : English
Default : No
Forced : No




_________________
Проголосуй за трекер Открытый торрент трекер - RUS-MEDIA.ORG

Проголосуй Открытый торрент трекер - RUS-MEDIA.ORG


Вернуться к началу
 Профиль Отправить личное сообщение  
 
   Похожие торренты   Автор   Торрент   Размер 
В этой теме нет новых непрочитанных сообщений. Изгои / Outsiders [1 сезон: 1-12 серия из 13] [Драма, 2016] WEB-DLRip [NewStudio]

Dracon

85 | 90

6.46 ГБ

В этой теме нет новых непрочитанных сообщений. Изгои / Outsiders [02х01-13] (2017) WEB-DLRip | AlexFilm

marya111

209 | 31

550.06 МБ

В этой теме нет новых непрочитанных сообщений. Тайны и ложь / Secrets and Lies [S02] [драма, детектив, триллер, 2016] WEB-DLRip, Dub [Кириллица]

salma3

49 | 49

4.54 ГБ

В этой теме нет новых непрочитанных сообщений. Черная комедия / Black-ish [S03] [Комедия, 2016] WEB-DL 1080p, Mvo [Кириллица]

salma3

0 | 0

37.65 ГБ

В этой теме нет новых непрочитанных сообщений. Тайны и ложь / Secrets and Lies [02x01-07 из 10] (драма, детектив, триллер, 2016) WEB-DLRip от GeneralFilm | D | Кириллица

marya111

17 | 24

3.16 ГБ

В этой теме нет новых непрочитанных сообщений. Сирена / Siren [S01] [фэнтези, драма, 2018] WEB-DL 1080p, Dub [Кириллица]

salma3

27 | 59

31.42 ГБ

В этой теме нет новых непрочитанных сообщений. Пожарная часть 19 / Station 19 [S01] [боевик, триллер, драма, 2018] WEBRip 1080p, Dub [Кириллица]

salma3

0 | 0

16.31 ГБ


Начать новую тему Ответить на тему  [ 1 сообщение ] 




Для Мосгорсуда, Роскомнадзора и рекламодателей:: mosgorsud-torrent[собачка]yandex.ru
cron