Торрент файл
скачать торрент магнет ссылка Добавлен: 14 июл 2018, 10:19
Размер: 14.29 ГБ
Сидеров: 0
Личеров: 0
Статус: (salma3)
Автор

СообщениеДобавлено: 27 апр 2018, 21:08 

Не в сети
Супермодератор
Аватара пользователя
Дата регистрации:
15 фев 2012, 16:44
Возраст: 29
Спасибо: 7428 / 2147
Сообщения: 80047
Год выпуска: 2018
Жанр: триллер, драма, криминал
Режиссер: Джошуа Сафран

В ролях: Приянка Чопра, Онжаню Эллис, Джейк МакЛафлин, Ясмин Эл Массри, Джоанна Э. Брэдди, Тейт Эллингтон, Грэхэм Роджерс, Анабель Акоста, Анна Хайа, Диллон Мэтьюз

Описание:
Шесть совершенно разных новобранцев поступают на стажировку в ФБР на базу Куантико в штате Вирджиния. Базой руководит Миранда Шоу, первая женщина на высшей должности в ФБР. Миранда объединяется со своим бывшим партнером, Лиамом О`Коннором, который ныне работает советником, чтобы отобрать лучших новобранцев в агенты. Тем не менее в будущем один из новобранцев будет подозреваемым в планировании крупнейшего с 11 сентября террористического акта по Нью-Йорку.



Страна: США
Продолжительность: 1 х ~00:40:00
Перевод: Профессиональный (многоголосый, закадровый)[IdeaFilm]

Формат: WEBRip 720p
Видео: 1280x720 (16/9), 23,976 fps, AVC (х264), , ~4500 kbps avg, 0.204 bit/pixel
Аудио #1 Rus: :48 kHz, AC3 Dolby Digital, 3/2 (L,C,R,l,r) + LFE ch, ~384 kbps
Аудио #1 Eng: :48 kHz, AC3 Dolby Digital, 3/2 (L,C,R,l,r) + LFE ch, ~384 kbps

присутствует реклама!


Общее
Уникальный идентификатор : 209660364149614552758429603481068924714 (0x9DBB1E0A6EB9024EB009ECFEDC7A6F2A)
Полное имя : D:\IDEAFILM\Quantico.S03.WEBRip.720p\Quantico.S03E01.WEBRip.720p-IdeaFilm.mkv
Формат : Matroska
Версия формата : Version 4 / Version 2
Размер файла : 1,60 Гбайт
Продолжительность : 43 м. 42 с.
Общий поток : 5228 Кбит/сек
Дата кодирования : UTC 2018-04-27 14:53:06
Программа кодирования : mkvmerge v12.0.0 ('Trust / Lust') 64bit
Библиотека кодирования : libebml v1.3.4 + libmatroska v1.4.5

Видео
Идентификатор : 1
Формат : AVC
Формат/Информация : Advanced Video Codec
Профиль формата :
Настройки формата : CABAC / 4 Ref Frames
Параметр CABAC формата : Да
Параметр RefFrames формата : 4 кадра
Идентификатор кодека : V_MPEG4/ISO/AVC
Продолжительность : 43 м. 42 с.
Битрейт : 4500 Кбит/сек
Ширина : 1280 пикселей
Высота : 720 пикселей
Соотношение сторон : 16:9
Режим частоты кадров : Постоянный
Частота кадров : 23,976 (24000/1001) кадра/сек
Цветовое пространство : YUV
Субдискретизация насыщенности : 4:2:0
Битовая глубина : 8 бит
Тип развёртки : Прогрессивная
Бит/(Пиксели*Кадры) : 0.204
Размер потока : 1,36 Гбайт (85%)
Библиотека кодирования : x264 core 130 r2273 b3065e6
Настройки программы : cabac=1 / ref=3 / deblock=1:0:0 / analyse=0x3:0x113 / me=hex / subme=2 / psy=1 / psy_rd=1.00:0.00 / mixed_ref=1 / me_range=16 / chroma_me=1 / trellis=1 / 8x8dct=1 / cqm=0 / deadzone=21,11 / fast_pskip=1 / chroma_qp_offset=0 / threads=24 / lookahead_threads=5 / sliced_threads=0 / nr=0 / decimate=1 / interlaced=0 / bluray_compat=0 / constrained_intra=0 / bframes=2 / b_pyramid=2 / b_adapt=1 / b_bias=0 / direct=1 / weightb=1 / open_gop=0 / weightp=2 / keyint=250 / keyint_min=23 / scenecut=40 / intra_refresh=0 / rc_lookahead=40 / rc=abr / mbtree=1 / bitrate=4500 / ratetol=1.0 / qcomp=0.60 / qpmin=0 / qpmax=69 / qpstep=4 / ip_ratio=1.40 / aq=1:1.00
Default : Да
Forced : Нет

Аудио #1
Идентификатор : 2
Формат : AC-3
Формат/Информация : Audio Coding 3
Идентификатор кодека : A_AC3
Продолжительность : 43 м. 42 с.
Вид битрейта : Постоянный
Битрейт : 384 Кбит/сек
Каналы : 6 каналов
Расположение каналов : Front: L C R, Side: L R, LFE
Частота : 48,0 КГц
Частота кадров : 31,250 кадров/сек (1536 SPF)
Битовая глубина : 16 бит
Метод сжатия : С потерями
Размер потока : 120 Мбайт (7%)
Заголовок : IdeaFilm
Язык : Russian
ServiceKind/String : Complete Main
Default : Да
Forced : Нет

Аудио #2
Идентификатор : 3
Формат : AC-3
Формат/Информация : Audio Coding 3
Идентификатор кодека : A_AC3
Продолжительность : 43 м. 2 с.
Битрейт : 384 Кбит/сек
Каналы : 6 каналов
Частота : 48,0 КГц
Частота кадров : 31,250 кадров/сек (1536 SPF)
Метод сжатия : С потерями
Размер потока : 118 Мбайт (7%)
Язык : English
Default : Нет
Forced : Нет



_________________
Проголосуй за трекер Открытый торрент трекер - RUS-MEDIA.ORG

Проголосуй Открытый торрент трекер - RUS-MEDIA.ORG


Вернуться к началу
 Профиль Отправить личное сообщение  
 
   Похожие торренты   Автор   Торрент   Размер 
В этой теме нет новых непрочитанных сообщений. База Куантико / Quantico / 3 сезон 1-09 серии из 13 [триллер, драма, криминал, детектив, 2018] WEBRip, Mvo [IdeaFilm]

salma3

0 | 0

5.19 ГБ

В этой теме нет новых непрочитанных сообщений. База Куантико / Quantico / 3 сезон 1-09 серии из 13 [триллер, драма, криминал, детектив, 2018] WEBRip 1080p, Mvo [IdeaFilm]

salma3

0 | 0

20.98 ГБ

В этой теме нет новых непрочитанных сообщений. База Куантико / Quantico / 2 сезон 1-22 серии из 22 [триллер, драма, криминал, детектив, 2016] WEB-DL 720p, Mvo [NewStudio]

salma3

11 | 28

32.71 ГБ

В этой теме нет новых непрочитанных сообщений. База Куантико / Quantico / 2 сезон 1-22 серии из 22 [триллер, драма, криминал, детектив, 2016] WEB-DLRip, Mvo [NewStudio]

salma3

9 | 12

11.39 ГБ

В этой теме нет новых непрочитанных сообщений. База Куантико / Quantico / 3 сезон 1-13 серии из 13 [Драма, 2018] WEBRip, Mvo [ColdFilm]

salma3

0 | 0

6.45 ГБ

В этой теме нет новых непрочитанных сообщений. База Куантико / Quantico [S03] [Детектив, драма, триллер, 2018] WEBRip 1080p, Mvo [Profix Media]

salma3

0 | 0

24.77 ГБ

В этой теме нет новых непрочитанных сообщений. База Куантико / Quantico [S03] [триллер, драма, криминал, 2018] WEB-DL 720p, Mvo [Jaskier]

salma3

0 | 0

14.51 ГБ


СообщениеДобавлено: 08 май 2018, 11:25 

Не в сети
Супермодератор
Аватара пользователя
Дата регистрации:
15 фев 2012, 16:44
Возраст: 29
Спасибо: 7428 / 2147
Сообщения: 80047
salma3 писал(а):
Re: База Куантико / Quantico / 3 сезон 1-2 серии из 13 [триллер, драма, криминал, детектив, 2018] WEBRip 720p, Mvo [IdeaFilm]

_________________
Проголосуй за трекер Открытый торрент трекер - RUS-MEDIA.ORG

Проголосуй Открытый торрент трекер - RUS-MEDIA.ORG


Вернуться к началу
 Профиль Отправить личное сообщение  
 

СообщениеДобавлено: 14 июл 2018, 10:19 

Не в сети
Супермодератор
Аватара пользователя
Дата регистрации:
15 фев 2012, 16:44
Возраст: 29
Спасибо: 7428 / 2147
Сообщения: 80047
salma3 писал(а):
Re: База Куантико / Quantico / 3 сезон 1-09 серии из 13 [триллер, драма, криминал, детектив, 2018] WEBRip 720p, Mvo [IdeaFilm]

_________________
Проголосуй за трекер Открытый торрент трекер - RUS-MEDIA.ORG

Проголосуй Открытый торрент трекер - RUS-MEDIA.ORG


Вернуться к началу
 Профиль Отправить личное сообщение  
 
Начать новую тему Ответить на тему  [ Сообщений: 3 ] 




Для Мосгорсуда, Роскомнадзора и рекламодателей:: mosgorsud-torrent[собачка]yandex.ru
cron