Торрент файл
скачать торрент магнет ссылка Добавлен: 16 май 2018, 11:54
Размер: 12.77 ГБ
Сидеров: 0
Личеров: 0
Статус: (salma3)
Автор

СообщениеДобавлено: 16 май 2018, 11:54 

Не в сети
Супермодератор
Аватара пользователя
Дата регистрации:
15 фев 2012, 16:44
Возраст: 29
Спасибо: 7400 / 2147
Сообщения: 78381
Год выхода: 2018
Произведено: США
Жанр: комедия
Режиссер: Билл Хейдер, Алек Берг, Мэгги Кэри

В главных ролях: Билл Хейдер, Стивен Рут, Сара Голдберг, Гленн Флешлер, Генри Уинклер, Энтони Кэрриган, Даррел Бритт-Гибсон, Энди Кэри, Алехандро Ферт, Кирби Хауэлл-Баптисте

О фильме: Барри - бывший морпех со Среднего Запада, а ныне никудышный киллер. Одинокий и неприкаянный, однажды он отправляется на заказ в Лос-Анджелес, где по воле случая оказывается на курсах актерского мастерства. Вдохновившись творческой атмосферой, Барри немедля решает стать актером и перезапустить свою жизнь.



Файл
Качество: WEBRip 1080p
Видео данные: MKV, 1920x1080 (2.40:1), 23.976 fps, 6072 Кбит/с
Аудио данные: AC3, 2 ch, 192 Кбит/с
Перевод: Любительский многоголосый (GreenРай Studio)
Продолжительность: 8 x 00:31:00

имеется реклама

General
Unique ID : 228990650507145618117423017623970042346 (0xAC45FEBD8A18FD62887BB6FAC26AD1EA)
Complete name : D:ГРИНРАЙBarry (1080p) GreenRay StudioBarry.S01E01.1080p.mkv
Format : Matroska
Format version : Version 4 / Version 2
File size : 1.38 GiB
Duration : 31 min 14 s
Overall bit rate : 6 345 kb/s
Encoded date : UTC 2018-04-16 05:12:23
Writing application : mkvmerge v6.5.0 ('Isn't she lovely') built on Oct 20 2013 12:50:05
Writing library : libebml v1.3.0 + libmatroska v1.4.1
Video
ID : 1
Format : AVC
Format/Info : Advanced Video Codec
Format profile : High@L3.1
Format settings : CABAC / 4 Ref Frames
Format settings, CABAC : Yes
Format settings, RefFrames : 4 frames
Codec ID : V_MPEG4/ISO/AVC
Duration : 31 min 14 s
Bit rate : 6 027 kb/s
Width : 1 920 pixels
Height : 1 080 pixels
Display aspect ratio : 16:9
Frame rate mode : Constant
Frame rate : 23.976 (23976/1000) FPS
Color space : YUV
Chroma subsampling : 4:2:0
Bit depth : 8 bits
Scan type : Progressive
Bits/(Pixel*Frame) : 0.121
Stream size : 1.32 GiB (95%)
Writing library : x264 core 146 r2538 121396c
Encoding settings : cabac=1 / ref=1 / deblock=1:0:0 / analyse=0x3:0x113 / me=hex / subme=2 / psy=1 / psy_rd=1.00:0.00 / mixed_ref=0 / me_range=16 / chroma_me=1 / trellis=0 / 8x8dct=1 / cqm=0 / deadzone=21,11 / fast_pskip=1 / chroma_qp_offset=0 / threads=9 / lookahead_threads=3 / sliced_threads=0 / nr=0 / decimate=1 / interlaced=0 / bluray_compat=0 / constrained_intra=0 / bframes=3 / b_pyramid=2 / b_adapt=1 / b_bias=0 / direct=1 / weightb=1 / open_gop=0 / weightp=1 / keyint=250 / keyint_min=23 / scenecut=40 / intra_refresh=0 / rc_lookahead=10 / rc=crf / mbtree=1 / crf=17.2 / qcomp=0.60 / qpmin=0 / qpmax=69 / qpstep=4 / ip_ratio=1.40 / aq=1:1.00
Language : English
Default : Yes
Forced : No
Audio
ID : 2
Format : AC-3
Format/Info : Audio Coding 3
Codec ID : A_AC3
Duration : 31 min 14 s
Bit rate mode : Constant
Bit rate : 192 kb/s
Channel(s) : 2 channels
Channel positions : Front: L R
Sampling rate : 48.0 kHz
Frame rate : 31.250 FPS (1536 SPF)
Bit depth : 16 bits
Compression mode : Lossy
Stream size : 42.9 MiB (3%)
Service kind : Complete Main
Default : Yes
Forced : No

Релиз от:


_________________
Проголосуй за трекер Открытый торрент трекер - RUS-MEDIA.ORG

Проголосуй Открытый торрент трекер - RUS-MEDIA.ORG


Вернуться к началу
 Профиль Отправить личное сообщение  
 
   Похожие торренты   Автор   Торрент   Размер 
В этой теме нет новых непрочитанных сообщений. Барри / Barry [S01] [комедия, 2018] WEBRip, Mvo [GreenРай Studio]

salma3

0 | 0

2.92 ГБ

В этой теме нет новых непрочитанных сообщений. Барри / Barry [S01] [комедия, 2018] WEBRip 720p, Mvo [GreenРай Studio]

salma3

1 | 2

4.32 ГБ

В этой теме нет новых непрочитанных сообщений. Насекомые / Hmyz [драма, комедия, 2018] WEBRip 1080p, Mvo [GreenРай Studio]

salma3

0 | 0

2.86 ГБ

В этой теме нет новых непрочитанных сообщений. Сёстры по степу / Step Sisters [комедия, 2018] WEBRip 1080p, Mvo [GreenРай Studio]

salma3

30 | 16

3.23 ГБ

В этой теме нет новых непрочитанных сообщений. Отец года / Father of the Year [комедия, 2018] WEBRip 1080p, Mvo [GreenРай Studio]

salma3

0 | 0

3.04 ГБ

В этой теме нет новых непрочитанных сообщений. Набросок / Sketch [боевик, 2018] WEBRip 1080p, Mvo [GreenРай Studio]

salma3

0 | 0

4.33 ГБ

В этой теме нет новых непрочитанных сообщений. Дарк / Darc [триллер, 2018] WEBRip 1080p, Mvo [GreenРай Studio]

salma3

105 | 58

3.12 ГБ


Начать новую тему Ответить на тему  [ 1 сообщение ] 




Для Мосгорсуда, Роскомнадзора и рекламодателей:: mosgorsud-torrent[собачка]yandex.ru
cron