Торрент файл
скачать торрент магнет ссылка Добавлен: 29 май 2018, 17:02
Размер: 7.52 ГБ
Сидеров: 19
Личеров: 61
Статус: (salma3)
Автор

СообщениеДобавлено: 29 май 2018, 17:02 

Не в сети
Супермодератор
Аватара пользователя
Дата регистрации:
15 фев 2012, 16:44
Возраст: 29
Спасибо: 7401 / 2147
Сообщения: 78608
Год выхода: 2018
Жанр: триллер, комедия
Режиссер: Джон Ист, Дэймон Томас, Гарри Брэдбир

В ролях: Джоди Комер, Сандра О, Фиона Шоу, Оуэн Макдоннелл, Ким Бодниа, Кирби Хауэлл-Баптисте, Даррен Бойд, Хелена Холмс, Дэвид Агранов, Мэри Энтони и др.

О фильме:
Проект, в основу которого легли романы Люка Дженнингса, повествует о наёмной убийце-психопатке Вилланелле и охотящейся на неё Еве — сотруднице службы безопасности, давно мечтавшей поменять бумажную работу на оперативную. Так начинается смертельно опасная, полная юмора и экшена игра в кошки-мышки между элегантной, талантливой убийцей и смышлёной оперативницей — обе женщины равно умны и одинаково одержимы друг другом.



Страна: США
Продолжительность: ~ 44 мин. серия
Перевод: Любительский (многоголосый закадровый) | OMSKBIRD

Файл
Кодек: MPEG-4 AVC
Качество: WEBRip 720p
Видео: AVC, 1280x720 (16:9), 23.976 fps, ~ 3000 kbps
Звук: Аудио rus: AC-3, 48 KHz, 2 ch, 192 kbps | OMSKBIRD records

Семпл

Присутствует реклама!


General
Unique ID : 229206570117858719060280553978835187158 (0xAC6F94662C24DD2881FA5265199B35D6)
Complete name : H:Мои ДокументыВидеоРАЗДАЧИЕВАKilling Eve S01 WEBRip 720p (OMSKBIRD)Killing Eve S01E01 WEBRip 720p (OMSKBIRD).mkv
Format : Matroska
Format version : Version 2
File size : 968 MiB
Duration : 42 min 44 s
Overall bit rate : 3 168 kb/s
Encoded date : UTC 2018-04-09 13:19:20
Writing application : mkvmerge v4.0.0 ('The Stars were mine') сборка от Jun 6 2010 16:18:42
Writing library : libebml v1.0.0 + libmatroska v1.0.0

Video
ID : 1
Format : AVC
Format/Info : Advanced Video Codec
Format profile : Baseline@L3.2
Format settings, CABAC : No
Format settings, RefFrames : 3 frames
Format settings, GOP : M=1, N=23
Codec ID : V_MPEG4/ISO/AVC
Duration : 42 min 44 s
Bit rate : 2 913 kb/s
Width : 1 280 pixels
Height : 720 pixels
Display aspect ratio : 16:9
Frame rate mode : Constant
Frame rate : 23.976 (24000/1001) FPS
Standard : NTSC
Color space : YUV
Chroma subsampling : 4:2:0
Bit depth : 8 bits
Scan type : Progressive
Bits/(Pixel*Frame) : 0.132
Stream size : 890 MiB (92%)
Language : English
Default : Yes
Forced : No
Color range : Limited
Color primaries : BT.709
Transfer characteristics : BT.709
Matrix coefficients : BT.709

Audio
ID : 2
Format : AC-3
Format/Info : Audio Coding 3
Format settings, Endianness : Big
Codec ID : A_AC3
Duration : 42 min 44 s
Bit rate mode : Constant
Bit rate : 192 kb/s
Channel(s) : 2 channels
Channel positions : Front: L R
Sampling rate : 48.0 kHz
Frame rate : 31.250 FPS (1536 SPF)
Bit depth : 16 bits
Compression mode : Lossy
Stream size : 58.7 MiB (6%)
Service kind : Complete Main
Default : Yes
Forced : No


_________________
Проголосуй за трекер Открытый торрент трекер - RUS-MEDIA.ORG

Проголосуй Открытый торрент трекер - RUS-MEDIA.ORG


Вернуться к началу
 Профиль Отправить личное сообщение  
 
   Похожие торренты   Автор   Торрент   Размер 
В этой теме нет новых непрочитанных сообщений. Убивая Еву / Killing Eve [S01] [триллер, комедия, 2018] WEBRip, Mvo [OmskBird]

salma3

34 | 57

4.71 ГБ

В этой теме нет новых непрочитанных сообщений. Убивая Еву / Killing Eve [S01] [триллер, 2018] WEB-DL 720p, Mvo [NewStudio]

salma3

26 | 35

8.17 ГБ

В этой теме нет новых непрочитанных сообщений. Лед / Ice [S02] [Драма, криминал, 2018] WEBRip 720p, Mvo [OmskBird]

salma3

0 | 0

11.19 ГБ

В этой теме нет новых непрочитанных сообщений. Колония / Colony [S03] [Фантастика, 2018] WEBRip 720p, Mvo [OmskBird]

salma3

0 | 0

12.2 ГБ

В этой теме нет новых непрочитанных сообщений. Аванпост / The Outpost [01x01 из 10] [фэнтези, приключения, 2018] WEBRip 720p, Mvo [OMSKBIRD]

salma3

0 | 0

971.02 МБ

В этой теме нет новых непрочитанных сообщений. Мгла / The Mist [S01] [Ужасы, драма, триллер, 2017] WEBRip 720p, Mvo [OmskBird]

salma3

9 | 10

9.49 ГБ

В этой теме нет новых непрочитанных сообщений. Нация Z / Z Nation [05x02 из 13] [Ужасы, фантастика, зомби, 2018] WEBRip 720p, Mvo [OMSKBIRD]

salma3

0 | 0

1.93 ГБ


Начать новую тему Ответить на тему  [ 1 сообщение ] 




Для Мосгорсуда, Роскомнадзора и рекламодателей:: mosgorsud-torrent[собачка]yandex.ru
cron