Торрент файл
скачать торрент магнет ссылка Добавлен: 12 июн 2018, 11:25
Размер: 37.65 ГБ
Сидеров: 0
Личеров: 0
Статус: (salma3)
Автор

СообщениеДобавлено: 12 июн 2018, 11:25 

Не в сети
Супермодератор
Аватара пользователя
Дата регистрации:
15 фев 2012, 16:44
Возраст: 29
Спасибо: 7401 / 2147
Сообщения: 78470
Год выпуска: 2016
Страна: США
Жанр: Комедия
Продолжительность: ~ 00:21:00

Перевод: Профессиональный (многоголосый закадровый) Кириллица

Режиссёр: Джеймс Гриффитс, Ребекка Эшер
В ролях: Энтони Андерсон, Трэйси Эллис Росс, Яра Шахиди, Маркус Скрибнер, Майлз Браун, Марсаи Мартин, Лоуренс Фишборн, Питер Маккензи, Кристофер Гриффин, Ли Буш

Описание: Андре «Дре» Джонсон — член совета управляющих корпорации. Он живет «американской мечтой»: отличная карьера, четверо красивых детей, дом в колониальном стиле в районе для верхнего среднего класса. Но однажды Дре начинает видеть свою идеальную жизнь совершенно по-другому…



Релиз: Beer kolesik Drinkers (Films.Club)

Качество: WEB-DL 1080p (Amazon)
Контейнер: MKV
Видео: H.264, 1920x1080 (16:9), 23.976 fps, 12.5 Mbps (0.252 bit/pixel)
Аудио 1: AC3, 48 kHz, 2ch, 192 kbps (Кириллица)
Аудио 2: E-AC3, 48 kHz, 6 ch, 640 kbps (Original)
Субтитры: английские
Реклама: Нет

Complete name : D:Blackish.S03.1080p.AMZN.WEB-DL.H.264-FILMS.CLUBBlackish.S03E01.1080p.AMZN.WEB-DL.H.264-FILMS.CLUB.mkv
Format : Matroska
Format version : Version 4 / Version 2
File size : 1.95 GiB
Duration : 21 min 31 s
Overall bit rate mode : Variable
Overall bit rate : 13.0 Mb/s
Encoded date : UTC 2017-12-22 01:28:08
Writing application : mkvmerge v8.2.0 ('World of Adventure') 64bit
Writing library : libebml v1.3.1 + libmatroska v1.4.2

Video
ID : 1
Format : AVC
Format/Info : Advanced Video Codec
Format profile : High@L4
Format settings : CABAC / 4 Ref Frames
Format settings, CABAC : Yes
Format settings, RefFrames : 4 frames
Codec ID : V_MPEG4/ISO/AVC
Duration : 21 min 31 s
Bit rate mode : Variable
Bit rate : 12.2 Mb/s
Maximum bit rate : 15.0 Mb/s
Width : 1 920 pixels
Height : 1 080 pixels
Display aspect ratio : 16:9
Frame rate mode : Constant
Frame rate : 23.976 (24000/1001) FPS
Color space : YUV
Chroma subsampling : 4:2:0
Bit depth : 8 bits
Scan type : Progressive
Bits/(Pixel*Frame) : 0.245
Stream size : 1.83 GiB (94%)
Default : Yes
Forced : No
Color range : Limited
Color primaries : BT.709
Transfer characteristics : BT.709
Matrix coefficients : BT.709

Audio #1
ID : 2
Format : AC-3
Format/Info : Audio Coding 3
Format settings, Endianness : Big
Codec ID : A_AC3
Duration : 21 min 31 s
Bit rate mode : Constant
Bit rate : 192 kb/s
Channel(s) : 2 channels
Channel positions : Front: L R
Sampling rate : 48.0 kHz
Frame rate : 31.250 FPS (1536 SPF)
Bit depth : 16 bits
Compression mode : Lossy
Stream size : 29.6 MiB (1%)
Language : Russian
Service kind : Complete Main
Default : Yes
Forced : No

Audio #2
ID : 3
Format : E-AC-3
Format/Info : Enhanced Audio Coding 3
Format settings, Endianness : Big
Codec ID : A_EAC3
Duration : 21 min 31 s
Bit rate mode : Constant
Bit rate : 640 kb/s
Channel(s) : 6 channels
Channel positions : Front: L C R, Side: L R, LFE
Sampling rate : 48.0 kHz
Frame rate : 187.500 FPS (256 SPF)
Compression mode : Lossy
Stream size : 98.6 MiB (5%)
Language : English
Service kind : Complete Main
Default : No
Forced : No

Text
ID : 4
Format : UTF-8
Codec ID : S_TEXT/UTF8
Codec ID/Info : UTF-8 Plain Text
Duration : 21 min 23 s
Bit rate : 110 b/s
Count of elements : 581
Stream size : 17.4 KiB (0%)
Title : English [CC]
Default : No
Forced : No



_________________
Проголосуй за трекер Открытый торрент трекер - RUS-MEDIA.ORG

Проголосуй Открытый торрент трекер - RUS-MEDIA.ORG


Вернуться к началу
 Профиль Отправить личное сообщение  
 
   Похожие торренты   Автор   Торрент   Размер 
В этой теме нет новых непрочитанных сообщений. Черная комедия / Black-ish [S02] [Комедия, 2015] WEB-DL 1080p, Mvo [Кириллица]

salma3

0 | 0

42.6 ГБ

В этой теме нет новых непрочитанных сообщений. Черная комедия / Black-ish [S01] [Комедия, 2014] WEB-DL 1080p, Mvo [Кириллица]

salma3

0 | 0

46.59 ГБ

В этой теме нет новых непрочитанных сообщений. Маленькая черная книжка / Little Black Book [Драма, мелодрама, комедия, 2004] WEB-DL 1080p, Mvo

salma3

0 | 0

9.81 ГБ

В этой теме нет новых непрочитанных сообщений. Изгои / Outsiders [S01] [драма, 2016] WEB-DL 1080p, Mvo [Кириллица]

salma3

0 | 0

26.86 ГБ

В этой теме нет новых непрочитанных сообщений. Маленькая черная книжка / Little Black Book [Драма, мелодрама, комедия, 2004] WEB-DLRip, Mvo

salma3

0 | 0

1.75 ГБ

В этой теме нет новых непрочитанных сообщений. Маленькая черная книжка / Little Black Book [Драма, мелодрама, комедия, 2004] WEB-DL 720p, Mvo

salma3

10 | 4

4.09 ГБ

В этой теме нет новых непрочитанных сообщений. My Black Stepsister / Моя Сводная Черная Сестра (2016) WEB-DL

amadei

46 | 42

966.88 МБ


Начать новую тему Ответить на тему  [ 1 сообщение ] 




Для Мосгорсуда, Роскомнадзора и рекламодателей:: mosgorsud-torrent[собачка]yandex.ru
cron