Торрент файл
скачать торрент магнет ссылка Добавлен: 14 окт 2018, 17:25
Размер: 1.22 ГБ
Сидеров: 0
Личеров: 0
Статус: (salma3)
Автор

СообщениеДобавлено: 07 окт 2018, 11:21 

Не в сети
Супермодератор
Аватара пользователя
Дата регистрации:
15 фев 2012, 16:44
Возраст: 29
Спасибо: 7400 / 2147
Сообщения: 78391
Год выхода:2018
Жанр: Ужасы, фантастика, зомби
Режиссер: Джон Хайамс, Карл Шэфер

В ролях: ХэКит Аллан, Том Эверетт Скотт, Келлита Смит, Расселл Ходжкинсон, Нат Занг, Анастасия Баранова, ДиДжей Куаллс, Пасэй Пау, Мэтт Седеньо, Майкл Уэлш, Эмилио Ривера, Хэролд Перрино, Лиза Коронадо, Дональд Коррен, Сара Коутс, Джина Гершон, Розали Миллер, Фил Эндрейд, Марк Карр, Ким Литтл, Кит Кокс, Аарон Трэйнор, Алекс Терзиефф и др.

О фильме:
Описание: Эпидемия вируса зомби накрыла весь мир. В подвалах секретного комплекса проводят испытания вакцины, заражая поочередно трех заключенных. Выживает только один. Алвин Бернард Мерфи, та ещё зараза в прямом и переносном смысле. Он становится единственной надеждой человечества на создания вакцины против зомби. Группе выживших предстоит переправить его в другой секретный комплекс, где беднягу разберут на анализы и вытянут из него тайны антизомбина. Мерфи постепенно обнаруживает, что вакцина в его теле мутировала, сделав его своего рода зомби-мессией. Дальнейшие приключения безумной команды и их подопечного разворачиваются на фоне зомби-апокалипсиса, зунами, зорнадо, зомби-травки, которую явно покуривали сценаристы. Сериал изящно и с легкостью пародирует штампы зомби-муви, а так же наполнен совершенно прекрасными отсылками (чего стоят хотя бы доктор Куриан, главзлодей серии игр "Дом мертвых", Джордж Мартин-зомби, дописывающий свою бессмертную сагу и библейский сюжет с рождением священного зомби-дитятки и пришествием волхвов-зомби). Рекомендуется фанатам зомби-муви, людям с чувством юмора и стиля.



Страна: США
Продолжительность: ~00:44:00 серия
Перевод: Любительский (многоголосый закадровый) | OMSKBIRD records

Файл
Кодек: XviD
Качество: WEBRip
Видео: 720x320, 23.976 fps, ~1786 kbps, 0.32 bit/pixel
Аудио rus:AC3, 48 kHz, 2 ch, 192 Kbps | OmskBird

Реклама: присутствует

Семпл

General
Complete name : G:Z.Nation.S05.WEBRip.OmskBirdZ.Nation.S05E01.WEBRip.OmskBird.avi
Format : AVI
Format/Info : Audio Video Interleave
File size : 623 MiB
Duration : 43 min 46 s
Overall bit rate : 1 990 kb/s
Writing application : Lavf57.71.100

Video
ID : 0
Format : MPEG-4 Visual
Format profile : Simple@L5
Format settings : BVOP1
Format settings, BVOP : 1
Format settings, QPel : No
Format settings, GMC : No warppoints
Format settings, Matrix : Default (MPEG)
Codec ID : XVID
Codec ID/Hint : XviD
Duration : 43 min 46 s
Bit rate : 1 787 kb/s
Width : 720 pixels
Height : 320 pixels
Display aspect ratio : 2.222
Frame rate : 23.976 (24000/1001) FPS
Color space : YUV
Chroma subsampling : 4:2:0
Bit depth : 8 bits
Scan type : Progressive
Compression mode : Lossy
Bits/(Pixel*Frame) : 0.323
Stream size : 560 MiB (90%)
Title : Alias Data Handler
Writing library : XviD 67

Audio
ID : 1
Format : AC-3
Format/Info : Audio Coding 3
Codec ID : 2000
Duration : 43 min 46 s
Bit rate mode : Constant
Bit rate : 192 kb/s
Channel(s) : 2 channels
Channel positions : Front: L R
Sampling rate : 48.0 kHz
Frame rate : 31.250 FPS (1536 SPF)
Bit depth : 16 bits
Compression mode : Lossy
Stream size : 60.1 MiB (10%)
Alignment : Aligned on interleaves
Interleave, duration : 32 ms (0.77 video frame)
Service kind : Complete Main


Внимание! Раздача ведётся путём добавления новых серий; при каждом добавлении создётся новый торрент. Чтобы начать докачку новой серии, пользователям необходимо сделать следующее:
Остановить скачивание.
Удалить старый торрент у себя из клиента (старые серии удалять не надо).
Скачать новый торрент и запустить его у себя в клиенте вместо старого, при этом указать клиенту путь в старую папку куда и должно происходить скачивание новых серий.
Ваш клиент при этом должен произвести хеширование (проверку) старой папки (если не производит сам - помогите ему сделать это), и будет докачивать только те серии которых у вас ещё нет. Старые серии при этом не удаляются, а продолжают раздаваться!
Eсли вы уже удалили старые серии, то предотвратить повторную закачку старых серий можно, отжав галочку в соответсвующих местах при запуске нового торрента. По возможности, желательно не удалять старые серии как можно дольше чтобы релизёр не столько продолжал раздавать старые серии, а смог сконцентрироваться на новых.


Релиз от: OmskBird


_________________
Проголосуй за трекер Открытый торрент трекер - RUS-MEDIA.ORG

Проголосуй Открытый торрент трекер - RUS-MEDIA.ORG


Вернуться к началу
 Профиль Отправить личное сообщение  
 
   Похожие торренты   Автор   Торрент   Размер 
В этой теме нет новых непрочитанных сообщений. Нация Z / Z Nation [05x02 из 13] [Ужасы, фантастика, зомби, 2018] WEBRip 720p, Mvo [OMSKBIRD]

salma3

0 | 0

1.93 ГБ

В этой теме нет новых непрочитанных сообщений. Нация Z / Z Nation [05x01-07 из 13] [Ужасы, фантастика, 2018] WEBRip, Mvo [ColdFilm]

salma3

0 | 0

3.84 ГБ

В этой теме нет новых непрочитанных сообщений. Нация Z / Z Nation [04x06 из 13] [ужасы, фантастика, боевик, 2017] WEBRip, Mvo [Baibako]

salma3

0 | 0

2.93 ГБ

В этой теме нет новых непрочитанных сообщений. Нация Z / Z Nation [S01-04] [Ужасы, фантастика, 2014-2017] WEB-DLRip, Mvo [LostFilm] [КПК]

salma3

4 | 13

10.59 ГБ

В этой теме нет новых непрочитанных сообщений. Нация Z / Z Nation [S01-04] [Ужасы, фантастика, боевик, 2014-2017] WEB-DLRip, Mvo [LostFilm]

salma3

5 | 30

34.77 ГБ

В этой теме нет новых непрочитанных сообщений. Нация Z / Z Nation [S01-03] [Боевик, Драма, Ужасы, Фантастика, 2014-2016] WEB-DLRip, Mvo [LostFilm]

salma3

30 | 50

26.84 ГБ

В этой теме нет новых непрочитанных сообщений. Нация Z / Z Nation / 4 сезон 1-13 серии из 13 [ужасы, фантастика, боевик, 2014] WEB-DLRip, Mvo [LostFilm]

salma3

0 | 0

6.36 ГБ


СообщениеДобавлено: 14 окт 2018, 17:25 

Не в сети
Супермодератор
Аватара пользователя
Дата регистрации:
15 фев 2012, 16:44
Возраст: 29
Спасибо: 7400 / 2147
Сообщения: 78391
salma3 писал(а):
Re: Нация Z / Z Nation [05x02 из 13] [Ужасы, фантастика, зомби, 2018] WEBRip, Mvo [OMSKBIRD]

_________________
Проголосуй за трекер Открытый торрент трекер - RUS-MEDIA.ORG

Проголосуй Открытый торрент трекер - RUS-MEDIA.ORG


Вернуться к началу
 Профиль Отправить личное сообщение  
 
Начать новую тему Ответить на тему  [ Сообщений: 2 ] 




Для Мосгорсуда, Роскомнадзора и рекламодателей:: mosgorsud-torrent[собачка]yandex.ru
cron