Торрент файл
скачать торрент магнет ссылка Добавлен: 14 окт 2018, 21:05
Размер: 11.94 ГБ
Сидеров: 0
Личеров: 0
Статус: (salma3)
Автор

СообщениеДобавлено: 14 окт 2018, 21:05 

Не в сети
Супермодератор
Аватара пользователя
Дата регистрации:
15 фев 2012, 16:44
Возраст: 29
Спасибо: 7401 / 2147
Сообщения: 78470
Год выпуска: 2018
Жанр: История, приключения, драма
Режиссер: Рикардо Габриели, Альваро Куриель

В ролях: Бенхамин Викунья, Андрес Парра, Марсела Мар, Мария Габриела де Фария, Евгения Суарез, Хуан Фернандо Санчез

О фильме:
Зрелищный чилийский сериал с великолепными видами, жаркими страстями и жестокими нравами. Действие происходит через 15 лет после 1 сезона. Капитан Агустин Гонсалес вместе со своим приемным сыном Диего (бастардом короля Испании Филиппа II) хочет покинуть империю, и многие попытаются им в этом помешать.



Страна: Чили
Продолжительность: 8 x ~ 00:48:00
Перевод: Любительский многоголосый закадровый [ColdFilm]

Файл
Кодек: x264 (AVC)
Качество: HDTVRip 720p
Видео: ~4000 Кбит/с, 1280x720, 25.000 fps
Аудио: Русский (AC3, 2 ch, 125 Кбит/с)




General
Unique ID : 54435411402130253515081081797789052564 (0x28F3E0FEA2DE2B928928FE30BF436E94)
Complete name : D:Sitiados.S02.720p.ColdFilmSitiados.S02E02.720p.ColdFilm.mkv
Format : Matroska
Format version : Version 2
File size : 1.54 GiB
Duration : 52 min 15 s
Overall bit rate : 4 212 kb/s
Encoded date : UTC 2017-11-20 18:25:40 / UTC 2017-11-20 18:25:40
Writing application : Lavf54.63.104
Writing library : Lavf54.63.104

Video
ID : 1
Format : AVC
Format/Info : Advanced Video Codec
Format profile : Main@L3.1
Format settings : CABAC / 1 Ref Frames
Format settings, CABAC : Yes
Format settings, ReFrames : 1 frame
Codec ID : V_MPEG4/ISO/AVC
Duration : 52 min 15 s
Bit rate : 4 000 kb/s
Width : 1 280 pixels
Height : 720 pixels
Display aspect ratio : 16:9
Frame rate mode : Constant
Frame rate : 25.000 FPS
Color space : YUV
Chroma subsampling : 4:2:0
Bit depth : 8 bits
Scan type : Progressive
Bits/(Pixel*Frame) : 0.174
Stream size : 1.44 GiB (93%)
Writing library : x264 core 129
Default : Yes
Forced : No

Audio
ID : 2
Format : AC-3
Format/Info : Audio Coding 3
Codec ID : A_AC3
Duration : 52 min 15 s
Bit rate mode : Constant
Bit rate : 192 kb/s
Channel(s) : 2 channels
Channel positions : Front: L R
Sampling rate : 48.0 kHz
Frame rate : 31.250 FPS (1536 SPF)
Bit depth : 16 bits
Compression mode : Lossy
Stream size : 71.8 MiB (5%)
Service kind : Complete Main
Default : Yes
Forced : No


Релиз от:


_________________
Проголосуй за трекер Открытый торрент трекер - RUS-MEDIA.ORG

Проголосуй Открытый торрент трекер - RUS-MEDIA.ORG


Вернуться к началу
 Профиль Отправить личное сообщение  
 
   Похожие торренты   Автор   Торрент   Размер 
В этой теме нет новых непрочитанных сообщений. В осаде / Sitiados [S02] [История, приключения, драма, 2018] HDTVRip, Mvo [ColdFilm]

salma3

0 | 0

5.06 ГБ

В этой теме нет новых непрочитанных сообщений. Люди, построившие Америку: Первопроходцы / The Men Who Built America: Frontiersmen [01x01-03 из 22] [документальный, биография, история, 2018] HDTVRip 720p, Mvo [Coldfilm]

salma3

0 | 0

7.26 ГБ

В этой теме нет новых непрочитанных сообщений. Супергёрл / Supergirl [04x03 из 22] [Фантастика, боевик, приключения, 2018] HDTVRip 720p, Mvo [ColdFilm]

salma3

0 | 0

2.94 ГБ

В этой теме нет новых непрочитанных сообщений. Вызовите акушерку / Call The Midwife [S07] [Драма, история, медицина, 2018] WEBRip 720p, Mvo [Coldfilm]

salma3

0 | 1

12.92 ГБ

В этой теме нет новых непрочитанных сообщений. Частный детектив Магнум / Magnum P.I. [01x06 из 13] [Боевик, криминал, приключения, 2018] HDTVRip 720p, Mvo [Coldfilm]

salma3

0 | 0

6.11 ГБ

В этой теме нет новых непрочитанных сообщений. Спасение / Salvation [S02] [Триллер, драма, 2018] HDTVRip 720p, Mvo [ColdFilm]

salma3

0 | 0

15.56 ГБ

В этой теме нет новых непрочитанных сообщений. В пустыне смерти / Into the Badlands [03x08 из 16] [Боевик, драма, приключения, 2018] HDTVRip, Mvo [ColdFilm]

salma3

0 | 0

4.38 ГБ


Начать новую тему Ответить на тему  [ 1 сообщение ] 




Для Мосгорсуда, Роскомнадзора и рекламодателей:: mosgorsud-torrent[собачка]yandex.ru
cron