Торрент файл
скачать торрент магнет ссылка Добавлен: Вчера, 19:11
Размер: 13.19 ГБ
Сидеров: 0
Личеров: 0
Автор

СообщениеДобавлено: 07 дек 2018, 01:04 

Не в сети
Аватара пользователя
Дата регистрации:
09 авг 2014, 12:07
Спасибо: 63 / 1
Сообщения: 260
Откуда: КРАСНОГОРСК


Летящие сквозь ночь / Nightflyers Сезон 1, Серия 1 - 4 из 10



Год выпуска: 2018
Выпущено: США, Gaeta, Rosenzweig Films, Hypnotic, Netflix
Жанр:Ужасы, фантастика, экранизация
Продолжительность: 00:50:00
Сезон:1
Серия: 1 - 4
Количество серий в сезоне: 10

Озвучка 1: - Профессиональный многоголосый -Lostfilm- Русский

Озвучка2: Профессиональный многоголосый - Jaskier -Русский

Озвучка 3: Профессиональный многоголосый - BaibaKo -Русский

Озвучка 4: Профессиональный многоголосый - OMSKBIRD -Русский

Озвучка 5: Профессиональный многоголосый - IdeaFilm -Русский

Озвучка 6: Профессиональный многоголосый - Profix.Media -Русский

Озвучка 7: Профессиональный многоголосый - DniproFilm - Ukrainian

Озвучка 8: Профессиональный многоголосый - English - Оригинал

Субтитры: : Russian, English, English SDH

Официальный сайт

MDB Кинопоиск

Режиссер: Эндрю МакКарти, Майк Кэхилл, Мэгги Кили

В ролях: Джоди Смит, Гретхен Мол, Оуэн Мэкен, Дэвид Аджала, Энгус Сэмпсон, Сэм Страйк, Майя Эшет, Брайан Ф. О`Бирн, Филлип Риз


Отправляемся в далекое будущее, где судьба родной человеческой планеты висит на волоске. Именно поэтому люди предпринимают попытку спасения Земли. Они организуют экспедицию к далеким звездам и планетам за границами солнечной системы. Где-то на границах галактики найдены следы инопланетного космического корабля, который может стать путем к спасению Земли. Однако вскоре становится ясно, что операция просто так не завершится, ведь даже бортовой компьютер оказывается против человеческого проникновения на палубу чужого корабля. Кто бы что ни говорил, но впереди главных героев ждет поистине кошмарное испытание. «Ночной полёт», или «Летящие сквозь ночь» (англ. Nightflyers), — экранизация произведения известного американского писателя Джорджа Р.Р.Мартина (автор Игры Престолов).



Качество :WEB-DLRip 1080p
Формат: MKV
Видео кодек: H264
Видео: 6920Кбит/сек,1920х960(2.000), в 23.976кадр/сек,AVC(NTSC) (Main@L4.1)(CABAC/4 Ref Frames)

Аудио Кодек:AC3

Аудио #1:AC3 384 Kbps, 48.0 KHz, 6 ch- Lostfilm -Русский

Аудио #2:AC3 , 384 Kbps, 48.0 KHz, 6 ch- Jaskier -Русский

Аудио #3:AC3 , 384 Kbps, 48.0 KHz, 6 ch- BaibaKo -Русский

Аудио #4:AC3 , 384 Kbps, 48.0 KHz, 6 ch- OMSKBIRD -Русский

Аудио #5:AC3 , 384 Kbps, 48.0 KHz, 6 ch- Profix.Media -Русский

Аудио #6:AC3 , 384 Kbps, 48.0 KHz, 6 ch- IdeaFilm -Русский

Аудио #7:AC3 , 384 Kbps, 48.0 KHz, 6 ch- DniproFilm - Ukrainian

Аудио #8: AC3, 640 Kbps, 48.0 KHz,6 ch - - English - Оригинал


Звуковая дорожка сделана путем наложения чистого голоса озвучивателей на центральный канал оригинальной дорожки. Качество идентично звуковой дорожке.



1 сезон 1 серия - Всё, что осталось позади - All That We Left Behind
1 сезон 2 серия - Факелы и вилы - Torches and Pitchforks
1 сезон 3 серия - Бездна смотрит в тебя - The Abyss Stares Back
1 сезон 4 серия - Белый Кролик - White Rabbit




Общее
Уникальный идентификатор : 76997895554240615626369909443794338334 (0x39ED4159647ACC7CAD7D9793C954821E)
Полное имя : E:\Nikolai.Baranov & PIRATIYA\Летящие сквозь ночь - Nightflyers\Nightflyers_2018_S01_N.B_HD_1080_6xRus_Ukr_Eng\Nightflyers_S01E01_Н264_DD5.1_N.B_HD_1080_6xRus_Ukr_Eng.mkv
Формат : Matroska
Версия формата : Version 4
Размер файла : 4,18 Гбайт
Продолжительность : 58 м. 20 с.
Общий поток : 10,3 Мбит/сек
Название фильма : Nightflyers 2018 S01Е01 @ Nikolai.Baranov & PIRATIYA
Дата кодирования : UTC 2018-12-09 14:50:57
Программа кодирования : mkvmerge v29.0.0 ('Like It Or Not') 64-bit
Библиотека кодирования : libebml v1.3.6 + libmatroska v1.4.9

Видео
Идентификатор : 1
Формат : AVC
Формат/Информация : Advanced Video Codec
Профиль формата : Main@L4.1
Настройки формата : CABAC / 4 Ref Frames
Параметр CABAC формата : Да
Параметр RefFrames формата : 4 кадра
Идентификатор кодека : V_MPEG4/ISO/AVC
Продолжительность : 58 м. 20 с.
Битрейт : 6920 Кбит/сек
Ширина : 1920 пикселей
Высота : 960 пикселей
Соотношение сторон : 2,000
Режим частоты кадров : Постоянный
Частота кадров : 23,976 (24000/1001) кадра/сек
Цветовое пространство : YUV
Субдискретизация насыщенности : 4:2:0
Битовая глубина : 8 бит
Тип развёртки : Прогрессивная
Бит/(Пиксели*Кадры) : 0.157
Размер потока : 2,82 Гбайт (67%)
Заголовок : Nightflyers_S01E01_Н264_DD5.1_N.B_HD_1080_6xRus_Ukr_Eng
Язык : Russian
Default : Нет
Forced : Нет
Цветовой диапазон : Limited
Основные цвета : BT.709
Характеристики трансфера : BT.709
Коэффициенты матрицы : BT.709

Аудио #1
Идентификатор : 5
Формат : AC-3
Формат/Информация : Audio Coding 3
Коммерческое название : Dolby Digital
Идентификатор кодека : A_AC3
Продолжительность : 58 м. 19 с.
Вид битрейта : Постоянный
Битрейт : 384 Кбит/сек
Каналы : 6 каналов
Channel layout : L R C LFE Ls Rs
Частота : 48,0 КГц
Частота кадров : 31,250 кадров/сек (1536 SPF)
Битовая глубина : 16 бит
Метод сжатия : С потерями
Размер потока : 160 Мбайт (4%)
Заголовок : MVO LostFilm @DD5.1 AC3, 384 Kbps, 48.0 KHz, 6 ch
Язык : Russian
ServiceKind/String : Complete Main
Default : Да
Forced : Нет

Аудио #2
Идентификатор : 6
Формат : AC-3
Формат/Информация : Audio Coding 3
Коммерческое название : Dolby Digital
Идентификатор кодека : A_AC3
Продолжительность : 58 м. 20 с.
Вид битрейта : Постоянный
Битрейт : 384 Кбит/сек
Каналы : 6 каналов
Channel layout : L R C LFE Ls Rs
Частота : 48,0 КГц
Частота кадров : 31,250 кадров/сек (1536 SPF)
Битовая глубина : 16 бит
Метод сжатия : С потерями
Размер потока : 160 Мбайт (4%)
Заголовок : MVO Jaskier @DD5.1 AC3, 384 Kbps, 48.0 KHz, 6 ch
Язык : Russian
ServiceKind/String : Complete Main
Default : Нет
Forced : Нет

Аудио #3
Идентификатор : 7
Формат : AC-3
Формат/Информация : Audio Coding 3
Коммерческое название : Dolby Digital
Идентификатор кодека : A_AC3
Продолжительность : 58 м. 20 с.
Вид битрейта : Постоянный
Битрейт : 384 Кбит/сек
Каналы : 6 каналов
Channel layout : L R C LFE Ls Rs
Частота : 48,0 КГц
Частота кадров : 31,250 кадров/сек (1536 SPF)
Битовая глубина : 16 бит
Метод сжатия : С потерями
Размер потока : 160 Мбайт (4%)
Заголовок : MVO Profix.Media @DD5.1 AC3, 384 Kbps, 48.0 KHz, 6 ch
Язык : Russian
ServiceKind/String : Complete Main
Default : Нет
Forced : Нет

Аудио #4
Идентификатор : 8
Формат : AC-3
Формат/Информация : Audio Coding 3
Коммерческое название : Dolby Digital
Идентификатор кодека : A_AC3
Продолжительность : 58 м. 20 с.
Вид битрейта : Постоянный
Битрейт : 384 Кбит/сек
Каналы : 6 каналов
Channel layout : L R C LFE Ls Rs
Частота : 48,0 КГц
Частота кадров : 31,250 кадров/сек (1536 SPF)
Битовая глубина : 16 бит
Метод сжатия : С потерями
Размер потока : 160 Мбайт (4%)
Заголовок : MVO BaibaKo @DD5.1 AC3, 384 Kbps, 48.0 KHz, 6 ch
Язык : Russian
ServiceKind/String : Complete Main
Default : Нет
Forced : Нет

Аудио #5
Идентификатор : 9
Формат : AC-3
Формат/Информация : Audio Coding 3
Коммерческое название : Dolby Digital
Идентификатор кодека : A_AC3
Продолжительность : 58 м. 20 с.
Вид битрейта : Постоянный
Битрейт : 384 Кбит/сек
Каналы : 6 каналов
Channel layout : L R C LFE Ls Rs
Частота : 48,0 КГц
Частота кадров : 31,250 кадров/сек (1536 SPF)
Битовая глубина : 16 бит
Метод сжатия : С потерями
Размер потока : 160 Мбайт (4%)
Заголовок : MVO OMSKBIRD @DD5.1 AC3, 384 Kbps, 48.0 KHz, 6 ch
Язык : Russian
ServiceKind/String : Complete Main
Default : Нет
Forced : Нет

Аудио #6
Идентификатор : 10
Формат : AC-3
Формат/Информация : Audio Coding 3
Коммерческое название : Dolby Digital
Идентификатор кодека : A_AC3
Продолжительность : 58 м. 20 с.
Вид битрейта : Постоянный
Битрейт : 384 Кбит/сек
Каналы : 6 каналов
Channel layout : L R C LFE Ls Rs
Частота : 48,0 КГц
Частота кадров : 31,250 кадров/сек (1536 SPF)
Битовая глубина : 16 бит
Метод сжатия : С потерями
Размер потока : 160 Мбайт (4%)
Заголовок : MVO IdeaFilm @DD5.1 AC3, 384 Kbps, 48.0 KHz, 6 ch
Язык : Russian
ServiceKind/String : Complete Main
Default : Нет
Forced : Нет

Аудио #7
Идентификатор : 11
Формат : AC-3
Формат/Информация : Audio Coding 3
Коммерческое название : Dolby Digital
Идентификатор кодека : A_AC3
Продолжительность : 58 м. 20 с.
Вид битрейта : Постоянный
Битрейт : 640 Кбит/сек
Каналы : 6 каналов
Channel layout : L R C LFE Ls Rs
Частота : 48,0 КГц
Частота кадров : 31,250 кадров/сек (1536 SPF)
Битовая глубина : 16 бит
Метод сжатия : С потерями
Размер потока : 267 Мбайт (6%)
Заголовок : Original@DD5.1 AC3 ,640 Kbps, 48.0 KHz, 6 ch
Язык : English
ServiceKind/String : Complete Main
Default : Нет
Forced : Нет

Аудио #8
Идентификатор : 12
Формат : AC-3
Формат/Информация : Audio Coding 3
Коммерческое название : Dolby Digital
Идентификатор кодека : A_AC3
Продолжительность : 58 м. 17 с.
Вид битрейта : Постоянный
Битрейт : 384 Кбит/сек
Каналы : 6 каналов
Channel layout : L R C LFE Ls Rs
Частота : 48,0 КГц
Частота кадров : 31,250 кадров/сек (1536 SPF)
Битовая глубина : 16 бит
Метод сжатия : С потерями
Размер потока : 160 Мбайт (4%)
Заголовок : MVO DniproFilm @DD5.1 AC3, 384 Kbps, 48.0 KHz, 6 ch
Язык : Ukrainian
ServiceKind/String : Complete Main
Default : Нет
Forced : Нет

Текст #1
Идентификатор : 2
Формат : UTF-8
Идентификатор кодека : S_TEXT/UTF8
Идентификатор кодека/Информация : UTF-8 Plain Text
Продолжительность : 56 м. 21 с.
Битрейт : 74 бит/сек
ElementCount : 736
Размер потока : 30,6 Кбайт (0%)
Заголовок : Rus
Язык : Russian
Default : Да
Forced : Нет

Текст #2
Идентификатор : 3
Формат : UTF-8
Идентификатор кодека : S_TEXT/UTF8
Идентификатор кодека/Информация : UTF-8 Plain Text
Продолжительность : 57 м. 15 с.
Битрейт : 56 бит/сек
ElementCount : 1117
Размер потока : 23,8 Кбайт (0%)
Заголовок : Original - SDH
Язык : English
Default : Нет
Forced : Нет

Текст #3
Идентификатор : 4
Формат : UTF-8
Идентификатор кодека : S_TEXT/UTF8
Идентификатор кодека/Информация : UTF-8 Plain Text
Продолжительность : 56 м. 15 с.
Битрейт : 44 бит/сек
ElementCount : 743
Размер потока : 18,5 Кбайт (0%)
Заголовок : Original
Язык : English
Default : Нет
Forced : Нет

Меню
00:00:00.000 : :Глава 01 / :Глава 01 / :Глава 01 / :Глава 01 / :Глава 01 / :Глава 01 / :Глава 01 / :Глава 01 / :Глава 01 / :Глава 01 / :Глава 01 / :Глава 01








Сезон 1

Внимание! Раздача пополняется по мере выхода новых серий!


Раздача ведётся путём добавления новых серий; при каждом добавлении создётся новый торрент.
Чтобы начать докачку новой серии, пользователям необходимо сделать следующее:
1. остановить скачивание,
2. удалить старый торрент у себя из клиента (старые серии удалять не надо),
3. скачать новый торрент и запустить его у себя в клиенте вместо старого, при этом указать клиенту путь в старую папку, куда и должно происходить скачивание новых серий.

Ваш клиент при этом должен произвести хеширование (проверку) старой папки (если не производит сам - помогите ему сделать это), и будет докачивать только те серии которых у вас ещё нет. Старые серии при этом не удаляются, а продолжают раздаваться!

Eсли вы уже удалили старые серии, то предотвратить повторную закачку старых серий можно, отжав галочку в соответсвующих местах при запуске нового торрента. По возможности, желательно не удалять старые серии как можно дольше, чтобы релизёр не столько продолжал раздавать старые серии, а смог сконцентрироваться на новых.

Совет для тех, кто не хочет ждать перехеширования:
Создайте ещё одну папку рядом с папкой сериала (рядом, а не в ней!!!). Каждую новую серию после удачной загрузки копируйте в новую папку так чтобы ваша основная папка всегда была пуста. Когда ваш новый торрент предложит вам закачать все файлы, выберете только последнюю. Для сидирования же укажите адрес новой папки.

Как закачать отдельный файл из торрента или докачать ранее пропущенные файлы торрента!

1. Открыть торрент
2. Снять галки с тех файлов торрента, которые мы не хотим закачивать. Оставляем только на нужных нам файлах (файле).
3. Нажать О.К.

В клиенте utorrent

Инструкция

1) Открыть торрент


2) Снять галки с тех файлов торрента, которые мы не хотим закачивать:

* либо вручную, снимая с каждого файла галку( скрин №1)
* либо, нажав кнопку "Снять метки (Select None)", сняв сразу со всех файлов(скрин №2)
№1

№2

Оставляем только на нужных нам файлах (файле).

3)Нажать О.К







Внимание!!! 16.12. 2018. РАЗДАЧА ОБНОВЛЕНА. ДОБАВЛЕНА 4- СЕРИЯ. ЗВУКОВАЯ ДОРОЖКА DniproFilm ОБНОВИТЕ ТОРЕНТ ФАЙЛ. ПРИЯТНОГО ПРОСМОТРА . Поблагодарить:
ЯД: 410017546713876



Релиз от: Nikolai.Baranov & PIRATIYA







Время раздачи : 24/7


_________________

Легко быть оптимистом, когда судьба не валит с ног тяжелыми ударами, а лишь иногда легонько шлепает по заднице.


Вернуться к началу
 Профиль Отправить личное сообщение  
 
   Похожие торренты   Автор   Торрент   Размер 
В этой теме нет новых непрочитанных сообщений. Летящие сквозь ночь / Nightflyers (Сезон 1, Серия 1 - 4 из 10 )( Эндрю МакКарти, Майк Кэхилл, Мэгги Кили) [2018, Ужасы, фантастика, экранизация , WEB-DLRip 720p][ Lostfilm+Jaskier+BaibaKО+OMSKBIRD+Profix.Media+IdeaFilm+DniproFilm+Eng]+[Subs

Враг Нароода

1 | 0

10.04 ГБ

В этой теме нет новых непрочитанных сообщений. Летящие сквозь ночь / Nightflyers (Сезон 1, Серия 1 - 3 из 10 )( Эндрю МакКарти, Майк Кэхилл, Мэгги Кили) [2018, Ужасы, фантастика , WEB-DLRip 400p][ Lostfilm+Jaskier+BaibaKО+OMSKBIRD+Profix.Media+IdeaFilm+DniproFilm+Eng]+[Subs ENG+Rus]

Враг Нароода

1 | 0

4.8 ГБ

В этой теме нет новых непрочитанных сообщений. Титаны/ Titans (Сезон 1, Серия 1-9 из 13 )(Брэд Андерсон, Грант Харви) [2018, Фантастика, фэнтези, боевик, приключения, WEB-DLRip 1080p][ Lostfilm+Jaskier+BaibaKО+NewStudio+Profix.Media+IdeaFilm+GoodPeoplei+Eng]+[Subs ENG+Rus]

Враг Нароода

1 | 0

22.91 ГБ

В этой теме нет новых непрочитанных сообщений. Титаны/ Titans (Сезон 1, Серия 1-9 из 13 )(Брэд Андерсон, Грант Харви) [2018, Фантастика, фэнтези, боевик, приключения, WEB-DLRip 400p][ Lostfilm+Jaskier+BaibaKО+NewStudio+Profix.Media+IdeaFilm+GoodPeoplei+Eng]+[Subs ENG+Rus]

Враг Нароода

1 | 0

10.28 ГБ

В этой теме нет новых непрочитанных сообщений. Титаны/ Titans (Сезон 1, Серия 1-9 из 13 )(Брэд Андерсон, Грант Харви) [2018, Фантастика, фэнтези, боевик, приключения, WEB-DLRip 720p][ Lostfilm+Jaskier+BaibaKО+NewStudio+Profix.Media+IdeaFilm+GoodPeoplei+Eng]+[Subs ENG+Rus]

Враг Нароода

1 | 0

16.37 ГБ

В этой теме нет новых непрочитанных сообщений. Кондор / Condor [2018](Сезон 1, Серия 1-10 из 10 )( Эндрю МакКарти, Лоуренс Триллинг) [Триллер, WEB-DLRip][1080p][ Lostfilm+NewStudiо+Jaskier+ ProfixMedia+BaibaKО+Kubik V Kube +Eng]+[Subs ENG]

Враг Нароода

2 | 0

31 ГБ

В этой теме нет новых непрочитанных сообщений. Кондор / Condor [2018](Сезон 1, Серия 1-10 из 10 )( Эндрю МакКарти, Лоуренс Триллинг) [Триллер, WEB-DLRip][720p][ Lostfilm+NewStudiо+Jaskier+ ProfixMedia+BaibaKО+Kubik V Kube +Eng]+[Subs ENG]

Враг Нароода

2 | 0

25.28 ГБ


Начать новую тему Ответить на тему  [ 1 сообщение ] 




Для Мосгорсуда, Роскомнадзора и рекламодателей:: mosgorsud-torrent[собачка]yandex.ru
cron