Торрент файл
скачать торрент магнет ссылка Добавлен: 30 июл 2018, 10:50
Размер: 5.23 ГБ
Сидеров: 0
Личеров: 0
Автор

СообщениеДобавлено: 30 июл 2018, 10:50 

В сети
Супермодератор
Аватара пользователя
Дата регистрации:
15 фев 2012, 16:44
Возраст: 29
Спасибо: 7422 / 2147
Сообщения: 79971
Год выпуска: 2018
Жанр: Документальный, спорт
Режиссер: Джим Джоден

В ролях: Джим Харбо, Чейз Уинович, Пеп Хэмилтон, Джон О'корн, Дон Браун, Рашан Гари, Марк Хэрмон, Уилтон Спейт, Тим Древню, Сара Харбо

О фильме:
Сериал рассказывает о закулисье самой успешной программы в американском футболе в сезоне 2017, Тренер Джим Харбо возглавляет команду своего родного университета, а сериал рассказывает о жизни игроков, несущих наследие Мичигана, не только на поле, но и вне его.



Страна: США
Продолжительность: 8 x ~ 00:41:00
Перевод: Любительский многоголосый закадровый [ColdFilm]

Файл
Кодек: x264 (AVC)
Качество: WEBRip 720p
Видео: 4000 Кбит/с, 1280x720, 23.976 fps
Аудио: Русский (AC3, 2 ch, 192 Кбит/с)




General
Unique ID : 74146782333652660822525974508087324232 (0x37C8269D4B92D19D6304AE58070CAE48)
Complete name : All.or.Nothing.New.Zealand.All.Blacks.S01E01.720p.ColdFilm.mkv
Format : Matroska
Format version : Version 2
File size : 1.30 GiB
Duration : 44 min 16 s
Overall bit rate : 4 202 kb/s
Encoded date : UTC 2018-06-01 01:08:05 / UTC 2018-06-01 01:08:05
Writing application : Lavf54.63.104
Writing library : Lavf54.63.104

Video
ID : 1
Format : AVC
Format/Info : Advanced Video Codec
Format profile : Main@L3.1
Format settings : CABAC / 1 Ref Frames
Format settings, CABAC : Yes
Format settings, ReFrames : 1 frame
Codec ID : V_MPEG4/ISO/AVC
Duration : 44 min 16 s
Bit rate : 4 000 kb/s
Width : 1 280 pixels
Height : 720 pixels
Display aspect ratio : 16:9
Frame rate mode : Constant
Frame rate : 23.976 (24000/1001) FPS
Color space : YUV
Chroma subsampling : 4:2:0
Bit depth : 8 bits
Scan type : Progressive
Bits/(Pixel*Frame) : 0.181
Stream size : 1.21 GiB (93%)
Writing library : x264 core 129

Default : Yes
Forced : No

Audio
ID : 2
Format : AC-3
Format/Info : Audio Coding 3
Codec ID : A_AC3
Duration : 44 min 16 s
Bit rate mode : Constant
Bit rate : 192 kb/s
Channel(s) : 2 channels
Channel positions : Front: L R
Sampling rate : 48.0 kHz
Frame rate : 31.250 FPS (1536 SPF)
Bit depth : 16 bits
Compression mode : Lossy
Stream size : 60.8 MiB (5%)
Service kind : Complete Main
Default : Yes
Forced : No


Релиз от:


_________________
Проголосуй за трекер Открытый торрент трекер - RUS-MEDIA.ORG

Проголосуй Открытый торрент трекер - RUS-MEDIA.ORG


Вернуться к началу
 Профиль Отправить личное сообщение  
 
   Похожие торренты   Автор   Торрент   Размер 
В этой теме нет новых непрочитанных сообщений. Всё или ничего: Мичиган Вулверинс / All or Nothing: The Michigan Wolverines [S01] [Документальный, спорт, 2018] WEBRip, Mvo [Coldfilm]

salma3

0 | 0

2.74 ГБ

В этой теме нет новых непрочитанных сообщений. Чи / The Chi [S01] [Драма, 2018] WEBRip 720p, Mvo [Coldfilm]

salma3

0 | 0

15.01 ГБ

В этой теме нет новых непрочитанных сообщений. Мама / Mum [S02] [Комедия, 2018] WEBRip 720p, Mvo [Coldfilm]

salma3

0 | 0

4.2 ГБ

В этой теме нет новых непрочитанных сообщений. Марсель / Marseille [S02] [Драма, 2018] WEBRip 720p, Mvo [Coldfilm]

salma3

3 | 9

8.07 ГБ

В этой теме нет новых непрочитанных сообщений. Портландия / Portlandia [S08] [комедия, 2018] WEBRip 720p, Mvo [Coldfilm]

salma3

0 | 0

6.25 ГБ

В этой теме нет новых непрочитанных сообщений. На районе / On My Block [S01] [Комедия, 2018] WEBRip 720p, Mvo [Coldfilm]

salma3

0 | 0

6.43 ГБ

В этой теме нет новых непрочитанных сообщений. Первые / The First [S01] [Фантастика, драма, 2018] WEBRip 720p, Mvo [Coldfilm]

salma3

0 | 0

10.19 ГБ


Начать новую тему Ответить на тему  [ 1 сообщение ] 




Для Мосгорсуда, Роскомнадзора и рекламодателей:: mosgorsud-torrent[собачка]yandex.ru
cron