Торрент файл
скачать торрент магнет ссылка Добавлен: 24 мар 2017, 14:02
Размер: 2.56 ГБ
Сидеров: 0
Личеров: 0
Автор

СообщениеДобавлено: 24 мар 2017, 14:02 

Не в сети
Супермодератор
Аватара пользователя
Дата регистрации:
15 фев 2012, 16:44
Возраст: 29
Спасибо: 7421 / 2147
Сообщения: 79959

Год производства: 2016
Жанр: All Sex
Продолжительность:35mn 22s
В ролях: Mia Martinez

Тип видео : HD
Формат видео : MP4
Video
ID : 1
Format : AVC
Format/Info : Advanced Video Codec
Format profile : High@L4.1
Format settings, CABAC : Yes
Format settings, ReFrames : 3 frames
Codec ID : avc1
Codec ID/Info : Advanced Video Coding
Duration : 35mn 22s
Bit rate mode : Variable
Bit rate : 10.0 Mbps
Maximum bit rate : 12.0 Mbps
Width : 1 920 pixels
Height : 1 080 pixels
Display aspect ratio : 16:9
Frame rate mode : Constant
Frame rate : 29.970 (30000/1001) fps
Standard : NTSC
Color space : YUV
Chroma subsampling : 4:2:0
Bit depth : 8 bits
Scan type : Progressive
Bits/(Pixel*Frame) : 0.161
Stream size : 2.48 GiB (97%)
Encoded date : UTC 1904-01-01 00:00:00
Tagged date : UTC 1904-01-01 00:00:00
Color range : Limited
Color primaries : BT.709
Transfer characteristics : BT.709
Matrix coefficients : BT.709

Audio
ID : 2
Format : AAC
Format/Info : Advanced Audio Codec
Format profile : LC
Codec ID : 40
Duration : 35mn 22s
Bit rate mode : Constant
Bit rate : 317 Kbps
Channel(s) : 2 channels
Channel positions : Front: L R
Sampling rate : 48.0 KHz
Frame rate : 46.875 fps (1024 spf)
Compression mode : Lossy
Stream size : 80.3 MiB (3%)
Default : Yes
Alternate group : 1
Encoded date : UTC 1904-01-01 00:00:00
Tagged date : UTC 1904-01-01 00:00:00

Скриншоты:


_________________
Проголосуй за трекер Открытый торрент трекер - RUS-MEDIA.ORG

Проголосуй Открытый торрент трекер - RUS-MEDIA.ORG


Вернуться к началу
 Профиль Отправить личное сообщение  
 
   Похожие торренты   Автор   Торрент   Размер 
В этой теме нет новых непрочитанных сообщений. [BangBros18.com / BangBros.com] Michelle Martinez (Michelle Martinez Gets Her Pussy Pounded / bbe15631 / 06.12.2016) [Amateur, Blowjob, Brunette, Cow Girl, Cum Shot, Doggystyle, Latina, Riding, Shaved, Teen, Vaginal, Young, SiteRip]

salma3

0 | 5

528.36 МБ

В этой теме нет новых непрочитанных сообщений. [BangBrosClips.com / BangBros.com] Mia Martinez - Mia Martinez Fucks a Fan (bbc16322 / 13.02.2018) [Amateur, Blowjob, Brunette, Cowgirl, Cum In Mouth, Cumshot, Doggystyle, Hardcore, Latina, Missionary, Riding, Vaginal]

salma3

0 | 0

516.72 МБ

В этой теме нет новых непрочитанных сообщений. [BangBrosClips.com / BangBros.com] Mia Martinez - Mia Martinez gets the cock that she craved (bbc15908 / 26.05.2017) [Amateur, Blowjob, Brunette, Cow Girl, Creampie, Cum Shot, Doggystye, Hardcore, Latina, Missionary, Riding, Shaved, Vaginal

salma3

18 | 6

333.83 МБ

В этой теме нет новых непрочитанных сообщений. [BangBrosClips.com / BangBros.com] Mia Martinez (Mia Martinez Fucks a Fan / 13.02.2018) [2018 г., Amateur, Blowjob, Brunette, Cowgirl, Doggystyle, Hardcore, Latina, Cum In Mouth, Cumshot, 2160p]

salma3

0 | 0

6.56 ГБ

В этой теме нет новых непрочитанных сообщений. [BangBros18.com / BangBros.com] Mia Martinez (Mia Martinez Gets Slammed / bbe15744 / 07.02.2017) [Amateur, Blowjob, Brunette, Cow Girl, Cum Shot, Cum-in-mouth, Doggystyle, Facial, Hardcore, Latina, Missionary, Riding, Shaved, Teen, Vaginal,

salma3

0 | 0

316.21 МБ

В этой теме нет новых непрочитанных сообщений. [MyDirtyMaid.com / BangBros.com] Mia Martinez - Maid Squirts on That Dick (19.06.2018) [All Sex, Blowjob, POV, 1080p]

salma3

0 | 0

3.86 ГБ

В этой теме нет новых непрочитанных сообщений. Missy Martinez Unleashed / Missy Martinez Unleashed (Devil's Film) [2016 г., All Sex, Big Boobs, Brunettes, Latin, 540p, WEB-DL](Split Scenes)

salma3

5 | 1

1.98 ГБ


Начать новую тему Ответить на тему  [ 1 сообщение ] 




Для Мосгорсуда, Роскомнадзора и рекламодателей:: mosgorsud-torrent[собачка]yandex.ru
cron