Торрент файл
скачать торрент магнет ссылка Добавлен: 24 мар 2017, 14:05
Размер: 4.78 ГБ
Сидеров: 0
Личеров: 0
Автор

СообщениеДобавлено: 24 мар 2017, 14:05 

Не в сети
Супермодератор
Аватара пользователя
Дата регистрации:
15 фев 2012, 16:44
Возраст: 29
Спасибо: 7401 / 2147
Сообщения: 78470
Год производства: 2016
Жанр: All Sex
Продолжительность: 28mn 51s
В ролях: Sydney Cole

Тип видео : HD
Формат видео : MP4
Video
ID : 1
Format : AVC
Format/Info : Advanced Video Codec
Format profile : Baseline@L3.1
Format settings, CABAC : No
Format settings, ReFrames : 2 frames
Codec ID : avc1
Codec ID/Info : Advanced Video Coding
Duration : 28mn 52s
Bit rate : 23.6 Mbps
Width : 1 920 pixels
Height : 1 080 pixels
Display aspect ratio : 16:9
Frame rate mode : Constant
Frame rate : 59.940 (59940/1000) fps
Color space : YUV
Chroma subsampling : 4:2:0
Bit depth : 8 bits
Scan type : Progressive
Bits/(Pixel*Frame) : 0.190
Stream size : 4.76 GiB (99%)
Writing library : x264 core 142 r2431 a5831aa
Encoding settings : cabac=0 / ref=2 / deblock=1:0:0 / analyse=0x1:0x111 / me=hex / subme=6 / psy=1 / psy_rd=1.00:0.00 / mixed_ref=1 / me_range=16 / chroma_me=1 / trellis=1 / 8x8dct=0 / cqm=0 / deadzone=21,11 / fast_pskip=1 / chroma_qp_offset=-2 / threads=2 / lookahead_threads=1 / sliced_threads=0 / nr=0 / decimate=1 / interlaced=0 / bluray_compat=0 / constrained_intra=0 / bframes=0 / weightp=0 / keyint=250 / keyint_min=25 / scenecut=40 / intra_refresh=0 / rc_lookahead=30 / rc=crf / mbtree=1 / crf=18.0 / qcomp=0.60 / qpmin=0 / qpmax=69 / qpstep=4 / ip_ratio=1.40 / aq=1:1.00
Encoded date : UTC 1904-01-01 00:00:00
Tagged date : UTC 1904-01-01 00:00:00

Audio
ID : 2
Format : AAC
Format/Info : Advanced Audio Codec
Format profile : LC
Codec ID : 40
Duration : 28mn 51s
Duration_LastFrame : 21ms
Bit rate mode : Constant
Bit rate : 108 Kbps
Channel(s) : 2 channels
Channel positions : Front: L R
Sampling rate : 48.0 KHz
Frame rate : 46.875 fps (1024 spf)
Compression mode : Lossy
Stream size : 22.2 MiB (0%)
Default : Yes
Alternate group : 1
Encoded date : UTC 1904-01-01 00:00:00
Tagged date : UTC 1904-01-01 00:00:00

Скриншоты:


_________________
Проголосуй за трекер Открытый торрент трекер - RUS-MEDIA.ORG

Проголосуй Открытый торрент трекер - RUS-MEDIA.ORG


Вернуться к началу
 Профиль Отправить личное сообщение  
 
   Похожие торренты   Автор   Торрент   Размер 
В этой теме нет новых непрочитанных сообщений. [SpyFam.com] Sydney Cole (StepBrother and StepSister Fucking In The Jacuzzi / 14.08.2017) [2017 г., All Sex, 1080p]

salma3

38 | 12

2.43 ГБ

В этой теме нет новых непрочитанных сообщений. [EvilAngel.com] Sydney Cole(Spunky Young Sydney's Big Cock Baptism) [2017 г., Gonzo Hardcore]

salma3

12 | 4

425.44 МБ

В этой теме нет новых непрочитанных сообщений. Sydney Cole / Cute But Psycho (2016) HD 720p

salma3

0 | 0

494.94 МБ

В этой теме нет новых непрочитанных сообщений. [BrattySis.com] Sydney Cole - Fucking My Step Sister (15.12.2017) [2017 г., Puffy Nipples, Short Girls, Brunette, Long hair, Tan, Thongs, Petite, Big Areolas, Girl-Boy, Blowjob, Facial, Girl Orgasm, POV, Deep Throat, Trimmed, 1080p]

salma3

18 | 6

3.73 ГБ

В этой теме нет новых непрочитанных сообщений. [passion-hd.com] Sydney Cole - Rub Down With A View [May 12, 2018 г., Gonzo, All sex, 1080p]

salma3

0 | 0

1.64 ГБ

В этой теме нет новых непрочитанных сообщений. [BrattySis.com] Sydney Cole (Step Siblings Secrets / 01.09.2017) [All Sex, Blowjob, Stepsister, Small Tits, Bathroom, POV, 1080p]

salma3

11 | 3

1.85 ГБ

В этой теме нет новых непрочитанных сообщений. [NewSensations.com] Sydney Cole (Sydney Is Dressed And Ready For Her Blackbull / 09.09.2017) [2017 г., Blonde,Deep Throat,Facial,Hotwife,Huge Cock,Interracial,Natural Tits,Tiny Tits,Toys, 720p]

salma3

20 | 6

1.32 ГБ


Начать новую тему Ответить на тему  [ 1 сообщение ] 




Для Мосгорсуда, Роскомнадзора и рекламодателей:: mosgorsud-torrent[собачка]yandex.ru
cron