Торрент файл
скачать торрент магнет ссылка Добавлен: 11 авг 2013, 09:55
Размер: 2.43 ГБ
Сидеров: 15
Личеров: 3
Автор

СообщениеДобавлено: 11 авг 2013, 09:55 

Не в сети
Зам. Админа
Аватара пользователя
Дата регистрации:
02 дек 2010, 12:39
Спасибо: 12656 / 214
Сообщения: 27984


Год выхода: 2012
Жанр: Драма, комедия
Режиссер: Луи Беккер
В ролях: Тьерри Новик, Элен Фийер, Оливье Барру, Мэрилин Канто, Нина Родригез, Арона Бернхейм-Дэннери, Тьерри Лермитт, Ренон Карто, Томас Бланшет, Бернар Болзингер, Саша Бурдо, Амандин Шаво, Хелен Кулон, Франсуа д’Эпену, Элоди Френк, Николя Гийо, Эмили Марш

О фильме:
После развода Антуан, тяжело работающий отец троих детей, медленно, но верно впадает в депрессию. С помощью старых друзей сползание в пропасть удается остановить, и отношения с детьми постепенно нормализуются. Видясь с ними только раз в неделю, он учится тому, как стать идеальным воскресным отцом и достойной моделью поведения для детей. Жизнь должна продолжаться, а радость и улыбка вернуться к нему. Кто знает, возможно, в будущем найдется место и для новых романтических отношений.



Страна: Франция
Студия: Alvy Productions, Angoa-Agicoa, Canal+ [fr]
Продолжительность: 01:25:31
Перевод: Профессиональный многоголосый (НТВ+)

Кодек: MPEG-4 AVC
Качество: HDTVRip 720p
Видео: 3400 Кбит/с, 1280x692, 25.000 кадр/с
Звук:
Аудио #1: Русский (AC3, 6 ch, 448 Кбит/с)
Аудио #2: Французский (AC3, 2 ch, 224 Кбит/с)

Семпл


Общее
Полное имя : Voskresnye.papy.2012.x264.HDTVRip(720p).MediaClub.mkv
Формат : Matroska
Версия формата : Version 2
Размер файла : 2,43 Гбайт
Продолжительность : 1 ч. 25 м.
Общий поток : 4072 Кбит/сек
Дата кодирования : UTC 2013-08-10 08:13:09
Программа кодирования : mkvmerge v5.4.0 ('Piper') built on Mar 10 2012 13:34:39
Библиотека кодирования : libebml v1.2.3 + libmatroska v1.3.0

Видео
Идентификатор : 1
Формат : AVC
Формат/Информация : Advanced Video Codec
Профиль формата : High@L4.1
Параметр CABAC формата : Да
Параметр ReFrames формата : 9 кадров
Идентификатор кодека : V_MPEG4/ISO/AVC
Продолжительность : 1 ч. 25 м.
Битрейт : 3400 Кбит/сек
Ширина : 1280 пикселей
Высота : 692 пикселя
Соотношение сторон : 1,85:1
Режим частоты кадров : Постоянный
Частота кадров : 25,000 кадров/сек
Цветовое пространство : YUV
Субдискретизация насыщенности : 4:2:0
Битовая глубина : 8 бит
Тип развёртки : Прогрессивная
Бит/(Пиксели*Кадры) : 0.154
Размер потока : 1,98 Гбайт (82%)
Библиотека кодирования : x264 core 125 r2208 d9d2288
Настройки программы : cabac=1 / ref=9 / deblock=1:-2:-2 / analyse=0x3:0x133 / me=umh / subme=10 / psy=1 / psy_rd=1.00:0.15 / mixed_ref=1 / me_range=32 / chroma_me=1 / trellis=2 / 8x8dct=1 / cqm=0 / deadzone=21,11 / fast_pskip=0 / chroma_qp_offset=-3 / threads=6 / lookahead_threads=1 / sliced_threads=0 / nr=0 / decimate=0 / interlaced=0 / bluray_compat=0 / constrained_intra=0 / bframes=8 / b_pyramid=2 / b_adapt=2 / b_bias=0 / direct=3 / weightb=1 / open_gop=0 / weightp=2 / keyint=250 / keyint_min=25 / scenecut=40 / intra_refresh=0 / rc=2pass / mbtree=0 / bitrate=3400 / ratetol=1.0 / qcomp=0.60 / qpmin=0 / qpmax=69 / qpstep=4 / cplxblur=20.0 / qblur=0.5 / ip_ratio=1.40 / pb_ratio=1.30 / aq=1:0.80
Default : Да
Forced : Нет

Аудио #1
Идентификатор : 2
Формат : AC-3
Формат/Информация : Audio Coding 3
Расширение режима : CM (complete main)
Параметр Endianness формата : Big
Идентификатор кодека : A_AC3
Продолжительность : 1 ч. 25 м.
Вид битрейта : Постоянный
Битрейт : 448 Кбит/сек
Каналы : 6 каналов
Расположение каналов : Front: L C R, Side: L R, LFE
Частота : 48,0 КГц
Битовая глубина : 16 бит
Метод сжатия : С потерями
Размер потока : 274 Мбайт (11%)
Язык : Russian
Default : Да
Forced : Нет

Аудио #2
Идентификатор : 3
Формат : AC-3
Формат/Информация : Audio Coding 3
Расширение режима : CM (complete main)
Параметр Endianness формата : Big
Идентификатор кодека : A_AC3
Продолжительность : 1 ч. 25 м.
Вид битрейта : Постоянный
Битрейт : 224 Кбит/сек
Каналы : 2 канала
Расположение каналов : Front: L R
Частота : 48,0 КГц
Битовая глубина : 16 бит
Метод сжатия : С потерями
Задержка видео : 4 мс.
Размер потока : 137 Мбайт (6%)
Язык : French
Default : Нет
Forced : Нет


Релиз от:



Вернуться к началу
 Профиль  
 
   Похожие торренты   Автор   Торрент   Размер 
В этой теме нет новых непрочитанных сообщений. Скорей бы воскресенье / Vivement dimanche [триллер, комедия, криминал, 1983] BDRip, Mvo

salma3

0 | 0

1.45 ГБ

В этой теме нет новых непрочитанных сообщений. Завтрак у папы [комедия, 2015] WEB-DLRip

salma3

12324 | 510

1.37 ГБ

В этой теме нет новых непрочитанных сообщений. Daddy Lovers / Возлюбленные Папы (Robby D., Cherry Pop) [2017 г., All Sex, Oral, 18+ Teens, Family Roleplay, Gonzo, DVDRip]

max77777

27 | 8

781.06 МБ

В этой теме нет новых непрочитанных сообщений. Вундеркинды / Wonder Boys [драма, комедия, 2000] HDTVRip 720p, Dub

salma3

0 | 0

4.92 ГБ

В этой теме нет новых непрочитанных сообщений. Волшебник / The Wizard [драма, комедия, приключения, семейный, 1989] HDTVRip 720p, Dvo

salma3

13 | 5

3.17 ГБ

В этой теме нет новых непрочитанных сообщений. Мистер Булл / Bull [S02] [Драма, комедия, 2017] HDTVRip 720p, Dvo [SunshineStudio]

salma3

0 | 0

14.9 ГБ

В этой теме нет новых непрочитанных сообщений. Высший пилотаж / Spun [Драма, криминал, комедия, 2002] HDTVRip 720p, Mvo

salma3

32 | 2

4 ГБ


Начать новую тему Ответить на тему  [ 1 сообщение ] 




Для Мосгорсуда, Роскомнадзора и рекламодателей:: mosgorsud-torrent[собачка]yandex.ru
cron