Торрент файл
скачать торрент магнет ссылка Добавлен: 10 ноя 2016, 02:27
Размер: 1.46 ГБ
Сидеров: 568
Личеров: 32
Автор

СообщениеДобавлено: 10 ноя 2016, 02:27 

Не в сети
Дата регистрации:
28 сен 2016, 18:10
Спасибо: 217 / 0
Сообщения: 1996
Информация о фильме
Название: Механик: Воскрешение
Оригинальное название: Mechanic: Resurrection
Год выпуска: 2016
Выпущено: Франция, США / Chartoff-Winkler Productions
Жанр: боевик, триллер, криминал
Продолжительность: 01:38:11
Перевод: Профессиональный (полное дублирование)
Субтитры: Русские (вшитые с исходника на иностранную речь)
Навигация по главам: Есть (4 главы)
Режиссер:
Дэннис Ганзель / Dennis Gansel
В ролях:
Джейсон Стэйтем, Джессика Альба, Томми Ли Джонс, Мишель Йео, Наталия Гуслистая, Ейяинг Рхатха Пхонгам, Сэм Хэзелдайн, Джон Ченатьемпо, Райчо Василев, Аарон Брамфилд
О фильме:
Артура Бишопа, давно оставившего свое криминальное ремесло, вынуждают снова вступить в игру. Чтобы похитители вернули его возлюбленную, он должен сделать то, что у него получается лучше всего: от него требуется совершить три убийства, идеально обставленных как несчастные случаи.

| | |
Файл
Качество: WEB-DLRip-AVC [MECHANIC_RESURRECTION_WEB_DL_1080p-BLUEBIRD]
Формат: MKV
Видео кодек: x264
Аудио кодек: AC3
Видео: 992x416 (2,40:1), 24,000 fps, x264 ~1740 kbps avg, 0.176 bit/pixel
Аудио: 48 kHz, AC3 Dolby Digital, 3/2 (L,C,R,l,r) + LFE ch, ~384 kbps - iTunes Russia

Общее
Полное имя : D:Mehanik_Voskreshenie_2016_WEB-DLRip-AVC_iT_by_Dalemake.mkv
Формат : Matroska
Версия формата : Version 4 / Version 2
Размер файла : 1,46 Гбайт
Продолжительность : 1 ч. 38 м.
Общий поток : 2123 Кбит/сек
Название фильма : [Mechanic: Resurrection_2016_All Films_by Dalemake]
Дата кодирования : UTC 2016-11-08 06:53:43
Программа кодирования : mkvmerge v7.8.0 ('River Man') 32bit built on Apr 3 2015 12:11:22
Библиотека кодирования : libebml v1.3.1 + libmatroska v1.4.2
DURATION : 01:38:11.552000000
NUMBER_OF_FRAMES : 184111
NUMBER_OF_BYTES : 282794496
_STATISTICS_WRITING_APP : mkvmerge v7.8.0 ('River Man') 32bit built on Apr 3 2015 12:11:22
_STATISTICS_WRITING_DATE_UTC : 2016-11-08 06:53:43
_STATISTICS_TAGS : BPS DURATION NUMBER_OF_FRAMES NUMBER_OF_BYTES
Видео
Идентификатор : 1
Формат : AVC
Формат/Информация : Advanced Video Codec
Профиль формата : High@L4.1
Параметр CABAC формата : Да
Параметр ReFrames формата : 11 кадров
Идентификатор кодека : V_MPEG4/ISO/AVC
Продолжительность : 1 ч. 38 м.
Битрейт : 1740 Кбит/сек
Ширина : 992 пикселя
Высота : 416 пикселей
Соотношение сторон : 2,40:1
Частота кадров : 24,000 кадра/сек
Цветовое пространство : YUV
Субдискретизация насыщенности : 4:2:0
Битовая глубина : 8 бит
Тип развёртки : Прогрессивная
Бит/(Пиксели*Кадры) : 0.176
Размер потока : 1,16 Гбайт (80%)
Заголовок : [Mechanic: Resurrection_2016_All Films_by Dalemake]
Библиотека кодирования : x264 core 146 r2538 121396c
Настройки программы : cabac=1 / ref=11 / deblock=1:-2:-1 / analyse=0x3:0x113 / me=umh / subme=11 / psy=1 / psy_rd=1.00:0.00 / mixed_ref=1 / me_range=48 / chroma_me=1 / trellis=2 / 8x8dct=1 / cqm=0 / deadzone=21,11 / fast_pskip=0 / chroma_qp_offset=-2 / threads=6 / lookahead_threads=1 / sliced_threads=0 / nr=0 / decimate=0 / interlaced=0 / bluray_compat=0 / constrained_intra=0 / bframes=10 / b_pyramid=2 / b_adapt=2 / b_bias=0 / direct=3 / weightb=1 / open_gop=0 / weightp=2 / keyint=240 / keyint_min=23 / scenecut=40 / intra_refresh=0 / rc_lookahead=60 / rc=2pass / mbtree=0 / bitrate=1740 / ratetol=1.0 / qcomp=0.60 / qpmin=0 / qpmax=69 / qpstep=4 / cplxblur=20.0 / qblur=0.5 / vbv_maxrate=50000 / vbv_bufsize=62500 / nal_hrd=none / filler=0 / ip_ratio=1.30 / pb_ratio=1.25 / aq=1:1.00
Default : Да
Forced : Да
Аудио
Идентификатор : 2
Формат : AC-3
Формат/Информация : Audio Coding 3
Расширение режима : CM (complete main)
Параметр Endianness формата : Big
Идентификатор кодека : A_AC3
Продолжительность : 1 ч. 38 м.
Вид битрейта : Постоянный
Битрейт : 384 Кбит/сек
Каналы : 6 каналов
Расположение каналов : Front: L C R, Side: L R, LFE
Частота : 48,0 КГц
Битовая глубина : 16 бит
Метод сжатия : С потерями
Размер потока : 270 Мбайт (18%)
Заголовок : Dub - iTunes Russia
Язык : Russian
Default : Да
Forced : Да
Меню
00:00:00.000 : en:Глава 1
00:30:11.000 : en:Глава 2
00:59:47.000 : en:Глава 3
01:33:45.000 : en:Глава 4



Вернуться к началу
 Профиль Отправить личное сообщение  
 
   Похожие торренты   Автор   Торрент   Размер 
В этой теме нет новых непрочитанных сообщений. Механик: Воскрешение / Mechanic: Resurrection (Боевик, триллер, криминал, 2016) BDRip от MegaPeer | iTunes

marya111

634 | 63

1.42 ГБ

В этой теме нет новых непрочитанных сообщений. Механик: Воскрешение / Mechanic: Resurrection (боевик, триллер, криминал, 2016) BDRip-AVC от HELLYWOOD | iTunes

marya111

316 | 38

2.14 ГБ

В этой теме нет новых непрочитанных сообщений. Механик: Воскрешение / Mechanic: Resurrection (боевик, триллер, криминал, 2016) BDRip-AVC от R.G.Resident | iTunes

marya111

1519 | 192

2.23 ГБ

В этой теме нет новых непрочитанных сообщений. Механик: Воскрешение / Mechanic: Resurrection (Боевик, триллер, криминал, 2016) BDRip 1080p | 60 FPS | iTunes

marya111

312 | 59

10.88 ГБ

В этой теме нет новых непрочитанных сообщений. Механик: Воскрешение / Mechanic: Resurrection (Боевик, триллер, криминал, 2016) BDRip от Kaztorrents | КПК | iTunes

marya111

294 | 41

632.44 МБ

В этой теме нет новых непрочитанных сообщений. Механик: Воскрешение / Mechanic: Resurrection (Боевик, триллер, криминал, 2016) BDRip 720p от ExKinoRay | iTunes

marya111

245 | 28

3.66 ГБ

В этой теме нет новых непрочитанных сообщений. Механик: Воскрешение / Mechanic: Resurrection [Боевик, триллер, криминал, 2016] WEBRip, Mvo [КПК ]

marya111

463 | 20

335.13 МБ


Начать новую тему Ответить на тему  [ 1 сообщение ] 




Для Мосгорсуда, Роскомнадзора и рекламодателей:: mosgorsud-torrent[собачка]yandex.ru
cron