Торрент файл
скачать торрент магнет ссылка Добавлен: 01 дек 2016, 20:16
Размер: 1.47 ГБ
Сидеров: 586
Личеров: 109
Статус: (salma3)
Автор

СообщениеДобавлено: 01 дек 2016, 20:16 

Не в сети
Супермодератор
Аватара пользователя
Дата регистрации:
15 фев 2012, 16:44
Возраст: 29
Спасибо: 7420 / 2147
Сообщения: 79751
Год выпуска: 2016
Жанр: комедия
Режиссер: Филипп де Шоврон

В ролях: Эри Абиттан, Меди Садун, Сириль Леконт, Слиман Дази, Рем Кериси, Лоик Лежандр, Эдгар Живри, Ивонн Граделе

Описание:
Несгибаемый коп Хосе Фернандес получает задание экстрадировать в Кабул обычного человека по имени Аким, которого по ошибке приняли за террориста. Аким никогда прежде не был ни в каком Кабуле, но для Хосе это не имеет никакого значения. Задание должно быть выполнено. Однако вынужденная посадка в Мальте внезапно меняет все карты. Теперь Хосе самого принимают за араба и им обоим приходится пуститься в бега.



Страна: Франция
Продолжительность: 01:27:18
Перевод: Профессиональный (многоголосый закадровый)[iTunes]

Формат: WEBDLRip-AVC, MKV, H.264, AC3
Видео: 1024x576 (16:9), 25.000 fps, AVC MPEG-4 (H.264), ~1977 kbps, 0.134 bit/pixel
Аудио: 48 kHz, AC3, 3/2 (L,C,R,l,r) + LFE ch, ~384.00 kbps avg

General
Unique ID : 168348648403719580577546155723716462494 (0x7EA6C532C2870C1E037BA147C20E879E)
Complete name : C:\Users\Юрик\Downloads\С вещами на выход_[tfile.ru].mkv
Format : Matroska
Format version : Version 2
File size : 1.47 GiB
Duration : 1h 27mn
Overall bit rate : 2 409 Kbps
Writing application : Lavf51.12.1
Writing library : Lavf51.12.1

Video
ID : 1
Format : AVC
Format/Info : Advanced Video Codec
Format profile :
Format settings, CABAC : No
Format settings, ReFrames : 1 frame
Format settings, GOP : M=1, N=12
Codec ID : V_MPEG4/ISO/AVC
Duration : 1h 27mn
Bit rate : 1 977 Kbps
Width : 1 024 pixels
Height : 576 pixels
Display aspect ratio : 16:9
Frame rate mode : Constant
Frame rate : 25.000 fps
Color space : YUV
Chroma subsampling : 4:2:0
Bit depth : 8 bits
Scan type : Progressive
Bits/(Pixel*Frame) : 0.134
Stream size : 1.21 GiB (82%)
Language : English
Default : Yes
Forced : No

Audio
ID : 2
Format : AC-3
Format/Info : Audio Coding 3
Mode extension : CM (complete main)
Format settings, Endianness : Big
Codec ID : A_AC3
Duration : 1h 27mn
Bit rate mode : Constant
Bit rate : 384 Kbps
Channel(s) : 2 channels
Channel positions : Front: L R
Sampling rate : 48.0 KHz
Bit depth : 32 bits
Compression mode : Lossy
Stream size : 240 MiB (16%)
Language : Russian
Default : Yes
Forced : No




_________________
Проголосуй за трекер Открытый торрент трекер - RUS-MEDIA.ORG

Проголосуй Открытый торрент трекер - RUS-MEDIA.ORG


Вернуться к началу
 Профиль Отправить личное сообщение  
 
   Похожие торренты   Автор   Торрент   Размер 
В этой теме нет новых непрочитанных сообщений. С вещами на вылет! / Debarquement immediat! / Last Call for Nowhere [комедия, 2016] WEB-DL 1080p, Mvo

salma3

238 | 52

3.35 ГБ

В этой теме нет новых непрочитанных сообщений. С вещами на вылет! / Debarquement immediat! [комедия, 2016] WEB-DLRip, Mvo

salma3

8579 | 871

1.37 ГБ

В этой теме нет новых непрочитанных сообщений. С вещами на вылет! / Débarquement immédiat! [комедия, 2016] WEB-DL 720p, Dub [iTunes]

salma3

1555 | 135

2.68 ГБ

В этой теме нет новых непрочитанных сообщений. С вещами на вылет! / Débarquement immédiat! (Филипп де Шоврон) [2016, Филипп де Шоврон, WEB-DLRip | iTunes] Dub

marya111

934 | 28

746.43 МБ

В этой теме нет новых непрочитанных сообщений. S.T.A.L.K.E.R.: Call of Pripyat - Call of Chernobyl [Action, Shooter, 3D, 1st Person, 2016] [RePack]

Sykre

5 | 2

6.34 ГБ

В этой теме нет новых непрочитанных сообщений. Хот-Бот / Hot Bot [фантастика, комедия, 2016] WEBDLRip, Dvo

salma3

50 | 4

1.37 ГБ

В этой теме нет новых непрочитанных сообщений. Четвёртый / The 4th [комедия, 2016] WEBDLRip, Dvo

salma3

62 | 11

1.37 ГБ


Начать новую тему Ответить на тему  [ 1 сообщение ] 




Для Мосгорсуда, Роскомнадзора и рекламодателей:: mosgorsud-torrent[собачка]yandex.ru
cron