Торрент файл
скачать торрент магнет ссылка Добавлен: 18 дек 2016, 11:23
Размер: 2.18 ГБ
Сидеров: 35
Личеров: 9
Статус: (salma3)
Автор

СообщениеДобавлено: 18 дек 2016, 11:23 

Не в сети
Супермодератор
Аватара пользователя
Дата регистрации:
15 фев 2012, 16:44
Возраст: 29
Спасибо: 7400 / 2147
Сообщения: 78350
Производство: Канада, США
Жанр: Боевик, Фантастика
Продолжительность: 01:34:47
Перевод: Профессиональный (двухголосый, закадровый) студия Ракурс, авторский (одноголосый, закадровый) Л.Володарский / А.Гаврилов
Режиссер: Т.Дж. Скотт

Актеры: Джалал Мерхи, Дэйл Хайдбаунд, Дж. Стивен Мондер Актеры: Боло Йенг, Джалал Мерхи, Билли Блэнкс, Бобби Филлипс, Маттиас Хьюз, Келли Галлант, Гарри Мок, Рамсей Смит, Грегори Филпот, М.Дж. Кенг

Описание:
Напарницу полицейского Джейсона Сторма, Зои, погибшую во время патрулирования выходов из подземного, обустроенного мира на мало пригодную для жизни поверхность Земли, превращают в абсолютно неуязвимого киборга-убийцу. Джейсон узнает, что Зои запрограммирована взорвать бездействующую атомную станцию. Шеф полиции, возжелавший управлять всем миром, готов уничтожить вместе с преступниками все население Северной Америки. Для того, чтобы предотвратить катастрофу, Джейсон объединяет усилия с самым грозным и уважаемым боевиком одной из группировок, Сумаем…



Качество видео: BDRip-AVC
Видео: AVC, 1024x576 (16:9), 23.976 fps, 2 707 Kbps (0.191 bit/pixel)
Аудио #1: AC-3, 48.0 KHz, 2 ch, 192 Kbps, CBR (Russian) - двухголосый
Аудио #2: AC-3, 48.0 KHz, 2 ch, 192 Kbps, CBR (Russian) - Л.Володарский
Аудио #3: AC-3, 48.0 KHz, 2 ch, 192 Kbps, CBR (Russian) - А.Гаврилов
Формат : Matroska
Версия формата : Version 2
Размер файла : 2,18 Гбайт
Продолжительность : 1 ч. 34 м.
Общий поток : 3292 Кбит/сек
Дата кодирования : UTC 2016-12-16 01:14:05
Программа кодирования : mkvmerge v5.3.0 ('I could have danced') built on Feb 9 2012 10:38:07
Библиотека кодирования : libebml v1.2.3 + libmatroska v1.3.0
Attachments : poster (2).jpg
Видео
Идентификатор : 1
Формат : AVC
Формат/Информация : Advanced Video Codec
Профиль формата : High@L4.1
Параметр CABAC формата : Да
Параметр ReFrames формата : 11 кадров
Идентификатор кодека : V_MPEG4/ISO/AVC
Продолжительность : 1 ч. 34 м.
Битрейт : 2707 Кбит/сек
Ширина : 1024 пикселя
Высота : 576 пикселей
Соотношение сторон : 16:9
Режим частоты кадров : Постоянный
Частота кадров : 23,976 (24000/1001) кадра/сек
Частота кадров в оригинале : 23,976 (23976/1000) кадра/сек
Цветовое пространство : YUV
Субдискретизация насыщенности : 4:2:0
Битовая глубина : 8 бит
Тип развёртки : Прогрессивная
Бит/(Пиксели*Кадры) : 0.191
Размер потока : 1,76 Гбайт (81%)
Библиотека кодирования : x264 core 146 r2538 121396c
Настройки программы : cabac=1 / ref=11 / deblock=1:-2:-2 / analyse=0x3:0x133 / me=umh / subme=11 / psy=1 / psy_rd=1.00:0.10 / mixed_ref=1 / me_range=32 / chroma_me=1 / trellis=2 / 8x8dct=1 / cqm=0 / deadzone=21,11 / fast_pskip=0 / chroma_qp_offset=-3 / threads=12 / lookahead_threads=2 / sliced_threads=0 / nr=0 / decimate=1 / interlaced=0 / bluray_compat=0 / constrained_intra=0 / bframes=8 / b_pyramid=2 / b_adapt=2 / b_bias=0 / direct=3 / weightb=1 / open_gop=0 / weightp=2 / keyint=240 / keyint_min=23 / scenecut=40 / intra_refresh=0 / rc=2pass / mbtree=0 / bitrate=2707 / ratetol=1.0 / qcomp=0.60 / qpmin=0 / qpmax=69 / qpstep=4 / cplxblur=20.0 / qblur=0.5 / ip_ratio=1.40 / pb_ratio=1.30 / aq=1:0.90
Default : Да
Forced : Нет
Аудио #1
Идентификатор : 2
Формат : AC-3
Формат/Информация : Audio Coding 3
Расширение режима : CM (complete main)
Параметр Endianness формата : Big
Идентификатор кодека : A_AC3
Продолжительность : 1 ч. 34 м.
Вид битрейта : Постоянный
Битрейт : 192 Кбит/сек
Каналы : 2 канала
Расположение каналов : Front: L R
Частота : 48,0 КГц
Частота кадров : 31,250 кадров/сек (1536 spf)
Битовая глубина : 16 бит
Метод сжатия : С потерями
Размер потока : 130 Мбайт (6%)
Заголовок : DVO (Ракурс, Екатеринбург Арт)
Язык : Russian
Default : Нет
Forced : Нет
Аудио #2
Идентификатор : 3
Формат : AC-3
Формат/Информация : Audio Coding 3
Расширение режима : CM (complete main)
Параметр Endianness формата : Big
Идентификатор кодека : A_AC3
Продолжительность : 1 ч. 34 м.
Вид битрейта : Постоянный
Битрейт : 192 Кбит/сек
Каналы : 2 канала
Расположение каналов : Front: L R
Частота : 48,0 КГц
Частота кадров : 31,250 кадров/сек (1536 spf)
Битовая глубина : 16 бит
Метод сжатия : С потерями
Размер потока : 130 Мбайт (6%)
Заголовок : AVO (Володарский)
Язык : Russian
Default : Нет
Forced : Нет
Аудио #3
Идентификатор : 4
Формат : AC-3
Формат/Информация : Audio Coding 3
Расширение режима : CM (complete main)
Параметр Endianness формата : Big
Идентификатор кодека : A_AC3
Продолжительность : 1 ч. 34 м.
Вид битрейта : Постоянный
Битрейт : 192 Кбит/сек
Каналы : 2 канала
Расположение каналов : Front: L R
Частота : 48,0 КГц
Частота кадров : 31,250 кадров/сек (1536 spf)
Битовая глубина : 16 бит
Метод сжатия : С потерями
Размер потока : 130 Мбайт (6%)
Заголовок : AVO (Гаврилов)
Язык : Russian
Default : Нет
Forced : Нет
Текст #1
Идентификатор : 5
Формат : PGS
Режим смешивания : zlib
Идентификатор кодека : S_HDMV/PGS
Идентификатор кодека/Информация : Picture based subtitle format used on BDs/HD-DVDs
Язык : German
Default : Да
Forced : Нет
Текст #2
Идентификатор : 6
Формат : PGS
Режим смешивания : zlib
Идентификатор кодека : S_HDMV/PGS
Идентификатор кодека/Информация : Picture based subtitle format used on BDs/HD-DVDs
Язык : German
Default : Нет
Forced : Нет
Меню #1
00:00:00.000 : en:Chapter 1
00:10:01.559 : en:Chapter 2
00:17:08.068 : en:Chapter 3
00:27:04.664 : en:Chapter 4
00:36:13.004 : en:Chapter 5
00:45:53.584 : en:Chapter 6
00:54:57.419 : en:Chapter 7
01:04:02.088 : en:Chapter 8
01:11:48.470 : en:Chapter 9
01:20:08.595 : en:Chapter 10
01:23:53.486 : en:Chapter 11
01:30:33.928 : en:Chapter 12


_________________
Проголосуй за трекер Открытый торрент трекер - RUS-MEDIA.ORG

Проголосуй Открытый торрент трекер - RUS-MEDIA.ORG


Вернуться к началу
 Профиль Отправить личное сообщение  
 
   Похожие торренты   Автор   Торрент   Размер 
В этой теме нет новых непрочитанных сообщений. Полицейский 2000 года / TC 2000 [Фантастика, боевик, 1993] BDRip-AVC, Dvo

salma3

35 | 9

745.09 МБ

В этой теме нет новых непрочитанных сообщений. Полицейский 2000 года / TC 2000 [Боевик, боевые искусства, фантастика, 1993] BDRip 1080p, Dvo

salma3

22 | 8

7 ГБ

В этой теме нет новых непрочитанных сообщений. Полицейский 2000 года / TC 2000 [Фантастика, боевик, 1993] BDRemux 1080p, Dvo

salma3

27 | 7

14.35 ГБ

В этой теме нет новых непрочитанных сообщений. Смертельные гонки 2000 года / Death Race 2000 [фантастика, боевик, комедия, спорт, 1975] BDRip-AVC, Avo

salma3

28 | 11

2.1 ГБ

В этой теме нет новых непрочитанных сообщений. Уравнитель 2000 / Equalizer 2000 [фантастика, боевик, приключения, 1987] BDRip 1080p, Avo

salma3

136 | 46

7.79 ГБ

В этой теме нет новых непрочитанных сообщений. Следующая пятница / Next Friday [комедия, 2000] BDRip 1080p, dub+2avo+sub

salma3

28 | 58

11.18 ГБ

В этой теме нет новых непрочитанных сообщений. Уравнитель 2000 / Equalizer 2000 [фантастика, боевик, приключения, 1987] HDRip, Avo

salma3

110 | 14

1.46 ГБ


Начать новую тему Ответить на тему  [ 1 сообщение ] 




Для Мосгорсуда, Роскомнадзора и рекламодателей:: mosgorsud-torrent[собачка]yandex.ru
cron