Торрент файл
скачать торрент магнет ссылка Добавлен: 04 янв 2017, 13:02
Размер: 1.78 ГБ
Сидеров: 39
Личеров: 12
Статус: (salma3)
Автор

СообщениеДобавлено: 04 янв 2017, 13:02 

Не в сети
Супермодератор
Аватара пользователя
Дата регистрации:
15 фев 2012, 16:44
Возраст: 29
Спасибо: 7401 / 2147
Сообщения: 78470
Год выхода: 2001
Жанр: комедия
Режиссер: Мэттью Даймонд / Matthew Diamond

В ролях: Ширли МакЛейн, Джоан Коллинз, Дэбби Рейнольдс, Элизабет Тейлор, Джонатан Силверман и др

О фильме:
После ошеломляющего успеха старого мюзикла "Безумец", продюсеры решают создать телевизионное шоу, пригласив для участия в съемках трех бывших голливудских легенд, которые исполнили в мюзикле главные роли — Кейт Вестберн (Ширли Маклейн), Эдди Холден (Джоан Коллинс) и Пайпер Грейсон (Дебби Рейнольдс). Естественно, ни одна уважающая себя актриса не может обойтись без агента — острой на язык и могущественной Берил Мэзон (Элизабет Тэйлор). Единственная проблема — дамы терпеть не могут друг друга...



Страна: США
Продолжительность: 01:29:10.944
Перевод: Профессиональный (многоголосый, закадровый) Первый Канал

Файл
Кодек: h.264
Качество: DVDRip-AVC Исходник R1 Sony Pictures
Видео: 720x480 (16:9) @ 853x480, 23.976 fps, AVC, ~2465 Kbps, 0.297 bits/pixel
Звук:
Русский, 48.0 KHz, AC3, 2 ch, 192 Kbps (двойное моно)
Английский, 48.0 KHz, AC3, 2 ch, 192 Kbps
Субтитры: Английские, VobSub
Общее
Уникальный идентификатор : 216568477686421317211813300889483316179 (0xA2ED925599CAB0E08EBA5819EDB58BD3)
Полное имя : E:FILMSStarye_kljachi_po-amerikanski.2001.DVDRip-AVC.mkv
Формат : Matroska
Версия формата : Version 4 / Version 2
Размер файла : 1,78 Гбайт
Продолжительность : 1 ч. 29 м.
Общий поток : 2854 Кбит/сек
Дата кодирования : UTC 2017-01-02 11:00:22
Программа кодирования : mkvmerge v9.7.1 ('Pandemonium') 64bit
Библиотека кодирования : libebml v1.3.4 + libmatroska v1.4.5

Видео
Идентификатор : 1
Формат : AVC
Формат/Информация : Advanced Video Codec
Профиль формата : High@L4.1
Параметр CABAC формата : Да
Параметр ReFrames формата : 11 кадров
Идентификатор кодека : V_MPEG4/ISO/AVC
Продолжительность : 1 ч. 29 м.
Битрейт : 2465 Кбит/сек
Ширина : 720 пикселей
Высота : 480 пикселей
Соотношение сторон : 16:9
Режим частоты кадров : Постоянный
Частота кадров : 23,976 (24000/1001) кадра/сек
Цветовое пространство : YUV
Субдискретизация насыщенности : 4:2:0
Битовая глубина : 8 бит
Тип развёртки : Прогрессивная
Бит/(Пиксели*Кадры) : 0.297
Размер потока : 1,54 Гбайт (86%)
Библиотека кодирования : x264 core 148 r2638 7599210
Настройки программы : cabac=1 / ref=11 / deblock=1:0:0 / analyse=0x3:0x133 / me=umh / subme=11 / psy=1 / psy_rd=1.10:0.15 / mixed_ref=1 / me_range=48 / chroma_me=1 / trellis=2 / 8x8dct=1 / cqm=0 / deadzone=21,11 / fast_pskip=0 / chroma_qp_offset=-3 / threads=8 / lookahead_threads=1 / sliced_threads=0 / nr=0 / decimate=0 / interlaced=0 / bluray_compat=0 / constrained_intra=0 / bframes=9 / b_pyramid=2 / b_adapt=2 / b_bias=0 / direct=3 / weightb=1 / open_gop=0 / weightp=2 / keyint=240 / keyint_min=23 / scenecut=40 / intra_refresh=0 / rc_lookahead=60 / rc=2pass / mbtree=0 / bitrate=2465 / ratetol=1.0 / qcomp=0.60 / qpmin=0 / qpmax=69 / qpstep=4 / cplxblur=20.0 / qblur=0.5 / vbv_maxrate=40000 / vbv_bufsize=50000 / nal_hrd=none / filler=0 / ip_ratio=1.40 / pb_ratio=1.30 / aq=1:1.00
Default : Нет
Forced : Нет
Цветовой диапазон : Limited
Коэффициенты матрицы : BT.601

Аудио #1
Идентификатор : 2
Формат : AC-3
Формат/Информация : Audio Coding 3
Расширение режима : CM (complete main)
Параметр Endianness формата : Big
Идентификатор кодека : A_AC3
Продолжительность : 1 ч. 29 м.
Вид битрейта : Постоянный
Битрейт : 192 Кбит/сек
Каналы : 2 канала
Расположение каналов : Front: L R
Частота : 48,0 КГц
Частота кадров : 31,250 кадров/сек (1536 spf)
Битовая глубина : 16 бит
Метод сжатия : С потерями
Размер потока : 122 Мбайт (7%)
Язык : Russian
Default : Да
Forced : Нет

Аудио #2
Идентификатор : 3
Формат : AC-3
Формат/Информация : Audio Coding 3
Профиль формата : Dolby Digital
Расширение режима : CM (complete main)
Параметр Endianness формата : Big
Идентификатор кодека : A_AC3
Продолжительность : 1 ч. 29 м.
Вид битрейта : Постоянный
Битрейт : 192 Кбит/сек
Каналы : 2 канала
Расположение каналов : Front: L R
Частота : 48,0 КГц
Частота кадров : 31,250 кадров/сек (1536 spf)
Битовая глубина : 16 бит
Метод сжатия : С потерями
Размер потока : 122 Мбайт (7%)
Язык : English
Default : Нет
Forced : Нет

Текст
Идентификатор : 4
Формат : VobSub
Режим смешивания : zlib
Идентификатор кодека : S_VOBSUB
Идентификатор кодека/Информация : Picture based subtitle format used on DVDs
Продолжительность : 1 ч. 27 м.
Битрейт : 3394 бит/сек
Count of elements : 1269
Размер потока : 2,13 Мбайт (0%)
Язык : English
Default : Нет
Forced : Нет

Меню
00:00:00.000 : en:Chapter 01
00:06:28.367 : en:Chapter 02
00:16:35.834 : en:Chapter 03
00:27:54.334 : en:Chapter 04
00:32:28.202 : en:Chapter 05
00:39:27.369 : en:Chapter 06
00:44:36.003 : en:Chapter 07
00:50:04.837 : en:Chapter 08
00:56:22.037 : en:Chapter 09
01:10:44.804 : en:Chapter 10
01:13:05.871 : en:Chapter 11
01:21:21.472 : en:Chapter 12


Релиз от: Temperest


_________________
Проголосуй за трекер Открытый торрент трекер - RUS-MEDIA.ORG

Проголосуй Открытый торрент трекер - RUS-MEDIA.ORG


Вернуться к началу
 Профиль Отправить личное сообщение  
 
   Похожие торренты   Автор   Торрент   Размер 
В этой теме нет новых непрочитанных сообщений. Старые клячи по-американски / These Old Broads [Комедия, 2001] DVDRip, Mvo

salma3

24 | 2

698.2 МБ

В этой теме нет новых непрочитанных сообщений. Старые ворчуны разбушевались / Grumpier Old Men [мелодрама, комедия, 1995] BDRip 720p, Dub+Dvo+Avo+Sub

salma3

49 | 12

4.21 ГБ

В этой теме нет новых непрочитанных сообщений. Афера по-американски / American Hustle [драма, комедия, 2013] HDRip, Dub

salma3

49 | 20

2.18 ГБ

В этой теме нет новых непрочитанных сообщений. Пляжный отдых по-американски / American Beach House [комедия, 2015] BDRip, Mvo

salma3

364 | 34

1.4 ГБ

В этой теме нет новых непрочитанных сообщений. Афера по-американски / American Hustle [драма, комедия, 2013] BDRip, Avo [Гаврилов]

salma3

30 | 18

1.46 ГБ

В этой теме нет новых непрочитанных сообщений. Следующая Топ Модель По Американски: ХХХ Пародия / America's Next Top Model: A XXX Porn Parody (2011) DVDRip

salma3

108 | 21

1.37 ГБ

В этой теме нет новых непрочитанных сообщений. 2001 маньяк / 2001 Maniacs [Ужасы, комедия, ремейк, 2005] BDRip 1080p, Dub+Sub

salma3

22 | 1

8.41 ГБ


Начать новую тему Ответить на тему  [ 1 сообщение ] 




Для Мосгорсуда, Роскомнадзора и рекламодателей:: mosgorsud-torrent[собачка]yandex.ru
cron