Торрент файл
скачать торрент магнет ссылка Добавлен: 13 янв 2017, 21:43
Размер: 1.45 ГБ
Сидеров: 129
Личеров: 37
Статус: (salma3)
Автор

СообщениеДобавлено: 13 янв 2017, 21:43 

Не в сети
Супермодератор
Аватара пользователя
Дата регистрации:
15 фев 2012, 16:44
Возраст: 29
Спасибо: 7400 / 2147
Сообщения: 78259
Год выхода: 2001
Жанр: комедия
Режиссер: Джоел Галлен

В ролях: Кайлер Ли, Крис Эванс, Джейми Прессли, Эрик Кристиан Олсен, Миа Киршнер, Дион Ричмонд, Эрик Джангманн, Рон Лестер, Коди МакМейнс, Сэм Хантингтон

О фильме:
Популярный в школе парень и звезда футбольной команды Джейк Уилер, ослепленный собственной славой и успехом, заключает пари со своими друзьями. Уилер делает ставку на то, что может сделать из любой девушки, посещающей их школу королеву школьного бала. Друзья сразу же выбирают предмет своей шутки — внешне малопривлекательную начинающую художницу Джэни Бриггс, чей комбинезон всегда в краске, которая носит очки и собирает свои волосы в «хвост». Джэни является изгоем в своем классе, однако пройдя через ряд событий, Уиллер понимает, что он любит этого «гадкого утенка»…



Страна: США
Студия: Columbia Pictures Corporation
Продолжительность: 01:29:00
Перевод: Профессиональный [многоголосный, закадровый]

Файл
Кодек: XviD
Качество: BDRip
Видео: XviD 73, 720x384, 23,976 fps, ~1871 Kbps
Звук: AC3, 6 ch, 48 kHz, ~448 kbps (MVO ВидеоСервис DVD9)
Субтитры: нет



General
Complete name : D:Недетское кино.(2001).BDRIP.[-=DoMiNo=-].avi
Format : AVI
Format/Info : Audio Video Interleave
File size : 1.45 GiB
Duration : 1 h 29 min
Overall bit rate : 2 328 kb/s
Writing library : VirtualDub build 35491/release

Video
ID : 0
Format : MPEG-4 Visual
Format profile : Advanced Simple@L5
Format settings, BVOP : 2
Format settings, QPel : No
Format settings, GMC : No warppoints
Format settings, Matrix : Custom
Muxing mode : Packed bitstream
Codec ID : XVID
Codec ID/Hint : XviD
Duration : 1 h 29 min
Bit rate : 1 871 kb/s
Width : 720 pixels
Height : 384 pixels
Display aspect ratio : 1.85:1
Frame rate : 23.976 (24000/1001) FPS
Color space : YUV
Chroma subsampling : 4:2:0
Bit depth : 8 bits
Scan type : Progressive
Compression mode : Lossy
Bits/(Pixel*Frame) : 0.282
Stream size : 1.16 GiB (80%)
Writing library : XviD 73

Audio
ID : 1
Format : AC-3
Format/Info : Audio Coding 3
Mode extension : CM (complete main)
Format settings, Endianness : Big
Codec ID : 2000
Duration : 1 h 29 min
Bit rate mode : Constant
Bit rate : 448 kb/s
Channel(s) : 6 channels
Channel positions : Front: L C R, Side: L R, LFE
Sampling rate : 48.0 kHz
Frame rate : 31.250 FPS (1536 spf)
Bit depth : 16 bits
Compression mode : Lossy
Stream size : 285 MiB (19%)
Alignment : Aligned on interleaves
Interleave, duration : 42 ms (1.00 video frame)
Interleave, preload duratio : 512 ms


_________________
Проголосуй за трекер Открытый торрент трекер - RUS-MEDIA.ORG

Проголосуй Открытый торрент трекер - RUS-MEDIA.ORG


Вернуться к началу
 Профиль Отправить личное сообщение  
 
   Похожие торренты   Автор   Торрент   Размер 
В этой теме нет новых непрочитанных сообщений. Недетское кино / Not Another Teen Movie [комедия, 2001] BDRip-AVC, Mvo+Avo

salma3

23 | 38

2.17 ГБ

В этой теме нет новых непрочитанных сообщений. Недетское кино / Not Another Teen Movie [комедия, 2001] BDRip-AVC, Mvo

salma3

42 | 12

1.46 ГБ

В этой теме нет новых непрочитанных сообщений. Недетское кино / Not Another Teen Movie [комедия, 2001] BDRip 720p, Mvo+Avo+Sub

salma3

62 | 19

4.13 ГБ

В этой теме нет новых непрочитанных сообщений. Очень страшное кино 2 / Scary Movie 2 [комедия, 2001] BDRip, Dub

salma3

91 | 7

1.45 ГБ

В этой теме нет новых непрочитанных сообщений. Очень страшное кино 2 / Scary Movie 2 [комедия, 2001] HDRip-AVC, Dub

salma3

0 | 0

741.74 МБ

В этой теме нет новых непрочитанных сообщений. Очень страшное кино / Scary Movie [комедия, 2000] BDRip, Dub

salma3

200 | 19

1.45 ГБ

В этой теме нет новых непрочитанных сообщений. Экстремальное кино / Extreme Movie [комедия, 2008] BDRip 720p, Dvo+Sub

salma3

120 | 26

3.93 ГБ


Начать новую тему Ответить на тему  [ 1 сообщение ] 




Для Мосгорсуда, Роскомнадзора и рекламодателей:: mosgorsud-torrent[собачка]yandex.ru
cron