Торрент файл
скачать торрент магнет ссылка Добавлен: 19 янв 2017, 13:59
Размер: 3.3 ГБ
Сидеров: 52
Личеров: 13
Статус: (salma3)
Автор

СообщениеДобавлено: 19 янв 2017, 13:59 

Не в сети
Супермодератор
Аватара пользователя
Дата регистрации:
15 фев 2012, 16:44
Возраст: 29
Спасибо: 7400 / 2147
Сообщения: 78200
Год выпуска: 2016
Страна: США, ЮАР
Жанр: драма, биография, спорт

Перевод: Профессиональный многоголосый [iTunes]
Субтитры: русские (forced), английские (full), английские (SDH)
Продолжительность: 02:04:26

Режиссер: Мира Наир

В ролях: Лупита Нионго (Harriet Mutesi), Дэвид Ойелоуо (Robert Katende), Нтаре Мвине (Tendo), Рассел Савадье (Russian Chess Official), Мадина Налванга (Phiona Mutesi), Морис Кирйа, Чарити Роуз Пимер, Тэрин Кйазе (Night), Эстер Табандеке (Sara Katende), Питер Одеке (Barumba)



Описание:
Молодая девушка из Уганды тренируется, чтобы стать чемпионкой мира по шахматам.




Качество: BDRip-AVC
Формат: MKV
Видео: AVC, 1024x428 (2.40:1), 2970 kbps, 23,976 fps, 0,283 bpp
Аудио №1: русский / AC3 / 5.1 / 48 kHz / 384 kbps /
Аудио №2: английский / AC3 / 5.1 / 48 kHz / 448 kbps /
Навигация по главам: есть


Релиз от:

General
Unique ID : 178643494006202543050858150524153301512 (0x86657C464C17BF5AB6841B58C4E10A08)
Complete name : D:downloadQueen of Katwe.2016.BDRip-AVC by schultz R.G.Resident.mkv
Format : Matroska
Format version : Version 4 / Version 2
File size : 3.30 GiB
Duration : 2 h 4 min
Overall bit rate : 3 800 kb/s
Encoded date : UTC 2017-01-17 23:51:05
Writing application : mkvmerge v8.9.0 ('Father Daughter') 64bit
Writing library : libebml v1.3.3 + libmatroska v1.4.4
Video
ID : 1
Format : AVC
Format/Info : Advanced Video Codec
Format profile : High@L4.1
Format settings, CABAC : Yes
Format settings, ReFrames : 12 frames
Codec ID : V_MPEG4/ISO/AVC
Duration : 2 h 4 min
Bit rate : 2 970 kb/s
Width : 1 024 pixels
Height : 428 pixels
Display aspect ratio : 2.40:1
Frame rate mode : Constant
Frame rate : 23.976 (23976/1000) FPS
Color space : YUV
Chroma subsampling : 4:2:0
Bit depth : 8 bits
Scan type : Progressive
Bits/(Pixel*Frame) : 0.283
Stream size : 2.58 GiB (78%)
Writing library : x264 core 146 r2538 121396c
Encoding settings : cabac=1 / ref=12 / deblock=1:-3:-3 / analyse=0x3:0x113 / me=umh / subme=11 / psy=1 / psy_rd=1.00:0.00 / mixed_ref=1 / me_range=48 / chroma_me=1 / trellis=2 / 8x8dct=1 / cqm=0 / deadzone=21,11 / fast_pskip=0 / chroma_qp_offset=-2 / threads=12 / lookahead_threads=3 / sliced_threads=0 / nr=0 / decimate=0 / interlaced=0 / bluray_compat=0 / constrained_intra=0 / bframes=11 / b_pyramid=2 / b_adapt=2 / b_bias=0 / direct=3 / weightb=1 / open_gop=0 / weightp=2 / keyint=240 / keyint_min=23 / scenecut=40 / intra_refresh=0 / rc_lookahead=40 / rc=2pass / mbtree=1 / bitrate=2970 / ratetol=1.0 / qcomp=0.60 / qpmin=0 / qpmax=69 / qpstep=4 / cplxblur=20.0 / qblur=0.5 / vbv_maxrate=50000 / vbv_bufsize=62500 / nal_hrd=none / filler=0 / ip_ratio=1.40 / aq=1:1.00
Language : English
Default : Yes
Forced : No
Audio #1
ID : 2
Format : AC-3
Format/Info : Audio Coding 3
Mode extension : CM (complete main)
Format settings, Endianness : Big
Codec ID : A_AC3
Duration : 2 h 4 min
Bit rate mode : Constant
Bit rate : 384 kb/s
Channel(s) : 6 channels
Channel positions : Front: L C R, Side: L R, LFE
Sampling rate : 48.0 kHz
Frame rate : 31.250 FPS (1536 spf)
Compression mode : Lossy
Stream size : 341 MiB (10%)
Language : Russian
Default : Yes
Forced : No
Audio #2
ID : 3
Format : AC-3
Format/Info : Audio Coding 3
Mode extension : CM (complete main)
Format settings, Endianness : Big
Codec ID : A_AC3
Duration : 2 h 4 min
Bit rate mode : Constant
Bit rate : 448 kb/s
Channel(s) : 6 channels
Channel positions : Front: L C R, Side: L R, LFE
Sampling rate : 48.0 kHz
Frame rate : 31.250 FPS (1536 spf)
Compression mode : Lossy
Stream size : 399 MiB (12%)
Language : English
Default : No
Forced : No
Text #1
ID : 4
Format : UTF-8
Codec ID : S_TEXT/UTF8
Codec ID/Info : UTF-8 Plain Text
Duration : 1 h 59 min
Bit rate : 5 b/s
Count of elements : 123
Stream size : 4.95 KiB (0%)
Title : forced
Language : Russian
Default : Yes
Forced : No
Text #2
ID : 5
Format : UTF-8
Codec ID : S_TEXT/UTF8
Codec ID/Info : UTF-8 Plain Text
Duration : 2 h 3 min
Bit rate : 41 b/s
Count of elements : 1493
Stream size : 37.7 KiB (0%)
Title : full
Language : English
Default : No
Forced : No
Text #3
ID : 6
Format : UTF-8
Codec ID : S_TEXT/UTF8
Codec ID/Info : UTF-8 Plain Text
Duration : 2 h 4 min
Bit rate : 47 b/s
Count of elements : 1740
Stream size : 43.4 KiB (0%)
Title : SDH
Language : English
Default : No
Forced : No
Menu
00:00:00.000 : en:Chapter 1
00:05:51.892 : en:Chapter 2
00:13:42.071 : en:Chapter 3
00:18:01.038 : en:Chapter 4
00:22:59.376 : en:Chapter 5
00:32:52.761 : en:Chapter 6
00:41:16.514 : en:Chapter 7
00:48:40.541 : en:Chapter 8
00:56:02.650 : en:Chapter 9
01:00:29.876 : en:Chapter 10
01:06:12.802 : en:Chapter 11
01:13:24.774 : en:Chapter 12
01:24:09.292 : en:Chapter 13
01:32:47.478 : en:Chapter 14
01:40:04.081 : en:Chapter 15
01:47:09.631 : en:Chapter 16
01:54:20.645 : en:Chapter 17
01:57:34.796 : en:Chapter 18


_________________
Проголосуй за трекер Открытый торрент трекер - RUS-MEDIA.ORG

Проголосуй Открытый торрент трекер - RUS-MEDIA.ORG


Вернуться к началу
 Профиль Отправить личное сообщение  
 
   Похожие торренты   Автор   Торрент   Размер 
В этой теме нет новых непрочитанных сообщений. Королева Катве / Queen of Katwe [Драма, биография, спорт, 2016] BDRip, Mvo [iTunes]

salma3

411 | 67

1.46 ГБ

В этой теме нет новых непрочитанных сообщений. Королева Катве / Queen of Katwe [Драма, биография, спорт, 2016] BDRip 1080p, Mvo+Sub [iTunes]

salma3

132 | 46

15.47 ГБ

В этой теме нет новых непрочитанных сообщений. Королева Катве / Queen of Katwe [Драма, биография, спорт, 2016] BDRip 720p, Mvo+Sub [iTunes]

salma3

268 | 68

6.41 ГБ

В этой теме нет новых непрочитанных сообщений. Королева Катве / Queen of Katwe [драма, биография, спорт, 2016] HDRip, Mvo [iTunes]

salma3

14 | 2

2.05 ГБ

В этой теме нет новых непрочитанных сообщений. Мария - королева Шотландии / Mary Queen of Scots [драма, биография, история, 2013] BDRip, Mvo [НТВ+]

salma3

11 | 4

2.06 ГБ

В этой теме нет новых непрочитанных сообщений. Реальный Рокки / Чак / The Bleeder / Chuck [Драма, биография, спорт, 2016] BDRip, Mvo [iTunes]

salma3

160 | 10

1.42 ГБ

В этой теме нет новых непрочитанных сообщений. Королева пустыни / Queen of the Desert [Драма, биография, исторический, 2015] WEB-DLRip, dvo

Dracon

419 | 20

1.4 ГБ


Начать новую тему Ответить на тему  [ 1 сообщение ] 




Для Мосгорсуда, Роскомнадзора и рекламодателей:: mosgorsud-torrent[собачка]yandex.ru
cron