Торрент файл
скачать торрент магнет ссылка Добавлен: 25 янв 2017, 18:01
Размер: 2.1 ГБ
Сидеров: 28
Личеров: 11
Статус: (salma3)
Автор

СообщениеДобавлено: 25 янв 2017, 18:01 

Не в сети
Супермодератор
Аватара пользователя
Дата регистрации:
15 фев 2012, 16:44
Возраст: 29
Спасибо: 7434 / 2147
Сообщения: 80280
Перевод: Авторский (одноголосый) М.Яроцкий, субтитры: отсутствуют
Формат: BDRip-AVC, MKV, H.264, AC3
Страна: США
Режиссер: Пол Бартел
Жанр: фантастика, боевик, комедия, спорт
Продолжительность: 01:19:35
Год выпуска: 1975

В ролях: Дэвид Кэррадайн, Симона Гриффет, Сильвестр Сталлоне, Мэри Воронов, Роберта Коллинз, Мартин Коув, Луиза Мориц, Дон Стил, Джойс Джеймисон, Карле Бенсен

Описание: В не столь отдаленном будущем главным спортивным событием в мире становятся так называемые «Смертельные гонки». Участники соревнования получают зачетные очки за каждого сбитого насмерть прохожего.



Видео: 1152x648 (16:9), 23,976 fps, MPEG4 AVC (x264), ~3549 kbps avg, 0.198 bit/pixel
Аудио: 48 kHz, AC3 Dolby Digital, 2 ch, 224 kbps

Релиз-группа: Перевод: Михаил "kyberpunk" ЯроцкийДоп. информация: Перевод доступен благодаря dikii, seryoga84, будулайроманов, farivan, kidman644, Ananerbe. Работа со звуком Переводман.

Общее
Уникальный идентификатор : 247061492568581050709905089347682681740 (0xB9DE500AC4382B149D037CA19AD1C38C)
Полное имя : D:\VIDEO\Мои переводы\Death Race 2000.1975.BDRip.kyberpunk.mkv
Формат : Matroska
Версия формата : Version 4 / Version 2
Размер файла : 2,10 Гбайт
Продолжительность : 1 ч. 19 м.
Общий поток : 3775 Кбит/сек
Название фильма : Death.Race.2000.1975.Bluray.GER
Кодирование произвёл : seeker05
Дата кодирования : UTC 2017-01-22 08:20:58
Программа кодирования : mkvmerge v9.4.0 ('Knurl') 64bit
Библиотека кодирования : libebml v1.3.4 + libmatroska v1.4.5

Видео
Идентификатор : 1
Формат : AVC
Формат/Информация : Advanced Video Codec
Профиль формата : High@L4
Параметр CABAC формата : Да
Параметр ReFrames формата : 8 кадров
Идентификатор кодека : V_MPEG4/ISO/AVC
Продолжительность : 1 ч. 19 м.
Битрейт : 3549 Кбит/сек
Ширина : 1152 пикселя
Высота : 648 пикселей
Соотношение сторон : 16:9
Режим частоты кадров : Постоянный
Частота кадров : 23,976 (24000/1001) кадра/сек
Цветовое пространство : YUV
Субдискретизация насыщенности : 4:2:0
Битовая глубина : 8 бит
Тип развёртки : Прогрессивная
Бит/(Пиксели*Кадры) : 0.198
Размер потока : 1,97 Гбайт (94%)
Заголовок : x264, 1152x648, 23.976 fps, 3549kbps
Библиотека кодирования : x264 core 140 r2377 1ca7bb9
Настройки программы : cabac=1 / ref=8 / deblock=1:-2:-1 / analyse=0x3:0x133 / me=umh / subme=10 / psy=1 / psy_rd=1.00:0.13 / mixed_ref=1 / me_range=32 / chroma_me=1 / trellis=2 / 8x8dct=1 / cqm=0 / deadzone=21,11 / fast_pskip=0 / chroma_qp_offset=-3 / threads=6 / lookahead_threads=1 / sliced_threads=0 / nr=0 / decimate=0 / interlaced=0 / bluray_compat=0 / constrained_intra=0 / bframes=10 / b_pyramid=2 / b_adapt=2 / b_bias=0 / direct=3 / weightb=1 / open_gop=0 / weightp=2 / keyint=240 / keyint_min=23 / scenecut=40 / intra_refresh=0 / rc_lookahead=120 / rc=2pass / mbtree=1 / bitrate=3549 / ratetol=1.0 / qcomp=0.60 / qpmin=0 / qpmax=69 / qpstep=4 / cplxblur=20.0 / qblur=0.5 / ip_ratio=1.40 / aq=2:1.10
Язык : English
Default : Да
Forced : Нет

Аудио
Идентификатор : 2
Формат : AC-3
Формат/Информация : Audio Coding 3
Расширение режима : CM (complete main)
Параметр Endianness формата : Big
Идентификатор кодека : A_AC3
Продолжительность : 1 ч. 19 м.
Вид битрейта : Постоянный
Битрейт : 224 Кбит/сек
Каналы : 2 канала
Расположение каналов : Front: L R
Частота : 48,0 КГц
Частота кадров : 31,250 кадров/сек (1536 spf)
Метод сжатия : С потерями
Размер потока : 128 Мбайт (6%)
Заголовок : Перевод Михаила Яроцкого
Язык : Russian
Default : Да
Forced : Нет




_________________
Проголосуй за трекер Открытый торрент трекер - RUS-MEDIA.ORG

Проголосуй Открытый торрент трекер - RUS-MEDIA.ORG


Вернуться к началу
 Профиль Отправить личное сообщение  
 
   Похожие торренты   Автор   Торрент   Размер 
В этой теме нет новых непрочитанных сообщений. Полицейский 2000 года / TC 2000 [Боевик, Фантастика, 1993] BDRip-AVC, Dvo+2Avo

salma3

35 | 9

2.18 ГБ

В этой теме нет новых непрочитанных сообщений. Полицейский 2000 года / TC 2000 [Фантастика, боевик, 1993] BDRip-AVC, Dvo

salma3

35 | 9

745.09 МБ

В этой теме нет новых непрочитанных сообщений. Полицейский 2000 года / TC 2000 [Боевик, боевые искусства, фантастика, 1993] BDRip 1080p, Dvo

salma3

22 | 8

7 ГБ

В этой теме нет новых непрочитанных сообщений. Полицейский 2000 года / TC 2000 [Фантастика, боевик, 1993] BDRemux 1080p, Dvo

salma3

27 | 7

14.35 ГБ

В этой теме нет новых непрочитанных сообщений. Уравнитель 2000 / Equalizer 2000 [фантастика, боевик, приключения, 1987] BDRip 1080p, Avo

salma3

136 | 46

7.79 ГБ

В этой теме нет новых непрочитанных сообщений. Уравнитель 2000 / Equalizer 2000 [фантастика, боевик, приключения, 1987] HDRip, Avo

salma3

110 | 14

1.46 ГБ

В этой теме нет новых непрочитанных сообщений. Дракула 2000 / Dracula 2000 [Ужасы, мистика, 2000] BDRip-AVC, Dub

salma3

112 | 26

745.63 МБ


Начать новую тему Ответить на тему  [ 1 сообщение ] 




Для Мосгорсуда, Роскомнадзора и рекламодателей:: mosgorsud-torrent[собачка]yandex.ru
cron