Торрент файл
скачать торрент магнет ссылка Добавлен: 28 янв 2017, 21:44
Размер: 2.91 ГБ
Сидеров: 40
Личеров: 9
Статус: (salma3)
Автор

СообщениеДобавлено: 28 янв 2017, 21:44 

Не в сети
Супермодератор
Аватара пользователя
Дата регистрации:
15 фев 2012, 16:44
Возраст: 29
Спасибо: 7428 / 2147
Сообщения: 80130
Год выпуска: 2005
Жанр: боевик, приключения, фантастика, драма
Режиссер: Кристофер Нолан

В ролях: Кристиан Бэйл, Кэти Холмс, Майкл Кейн, Киллиан Мёрфи, Том Уилкинсон, Лиам Нисон, Кен Ватанабе, Гари Олдман, Морган Фриман, Рутгер Хауэр

Описание:
В детстве юный наследник огромного состояния Брюс Уэйн оказался свидетелем убийства своих родителей, и тогда он решил бороться с преступностью. Спустя годы он отправляется в путешествие по миру, чтобы найти способ восстановить справедливость. Обучение у мудрого наставника боевым искусствам дает ему силу и смелость. Вернувшись в родной город, Уэйн становится Бэтменом и ведет борьбу со злом.



Страна: США, Великобритания
Продолжительность: 02:20:02
Перевод: Профессиональный (полное дублирование)
Субтитры: Русские, английские

Формат: BDRip-AVC, MKV, H.264, AC3
Видео: 1140x476 (2.40:1), 23.976 fps, AVC (H.264), ~2080 kbps, 0.139 bit/pixel
Аудио1: Русский: 48 kHz, AC3 Dolby Digital, 3/2 (L,C,R,l,r) + LFE ch, ~448 kbps
Аудио2: Английский: 48 kHz, AC3 Dolby Digital, 3/2 (L,C,R,l,r) + LFE ch, ~448 kbps

Формат : Matroska
Версия формата : Version 4 / Version 2
Размер файла : 2,95 Гбайт
Продолжительность : 2 ч. 33 м.
Общий поток : 2761 Кбит/сек
Дата кодирования : UTC 2013-12-16 13:14:18
Программа кодирования : mkvmerge v6.1.0 ('Old Devil') built on Mar 4 2013 09:10:42
Библиотека кодирования : libebml v1.3.0 + libmatroska v1.4.0

Видео
Идентификатор : 1
Формат : AVC
Формат/Информация : Advanced Video Codec
Профиль формата :
Параметр CABAC формата : Да
Параметр ReFrames формата : 14 кадров
Идентификатор кодека : V_MPEG4/ISO/AVC
Продолжительность : 2 ч. 33 м.
Битрейт : 1810 Кбит/сек
Номинальный битрейт : 2080 Кбит/сек
Ширина : 1140 пикселей
Высота : 476 пикселей
Соотношение сторон : 2,40:1
Режим частоты кадров : Постоянный
Частота кадров : 23,976 кадра/сек
Цветовое пространство : YUV
Субдискретизация насыщенности : 4:2:0
Битовая глубина : 8 бит
Тип развёртки : Прогрессивная
Бит/(Пиксели*Кадры) : 0.139
Размер потока : 1,94 Гбайт (66%)
Заголовок : Batman.Begins.2005.DUAL.BDRip-AVC.AC3.-AngelOfTrue
Библиотека кодирования : x264 core 130 r2273 b3065e6
Настройки программы : cabac=1 / ref=14 / deblock=1:-3:-2 / analyse=0x3:0x133 / me=umh / subme=11 / psy=1 / psy_rd=1.00:0.00 / mixed_ref=1 / me_range=32 / chroma_me=1 / trellis=2 / 8x8dct=1 / cqm=0 / deadzone=21,11 / fast_pskip=0 / chroma_qp_offset=-2 / threads=6 / lookahead_threads=1 / sliced_threads=0 / nr=0 / decimate=0 / interlaced=0 / bluray_compat=0 / constrained_intra=0 / bframes=15 / b_pyramid=2 / b_adapt=2 / b_bias=0 / direct=3 / weightb=1 / open_gop=0 / weightp=2 / keyint=240 / keyint_min=23 / scenecut=40 / intra_refresh=0 / rc_lookahead=60 / rc=2pass / mbtree=0 / bitrate=2080 / ratetol=1.0 / qcomp=0.65 / qpmin=0 / qpmax=69 / qpstep=4 / cplxblur=20.0 / qblur=0.5 / vbv_maxrate=20000 / vbv_bufsize=25000 / nal_hrd=none / ip_ratio=1.35 / pb_ratio=1.25 / aq=2:1.00
Язык : Russian
Default : Да
Forced : Нет
Основные цвета : BT.709
Характеристики трансфера : BT.709

Аудио #1
Идентификатор : 2
Формат : AC-3
Формат/Информация : Audio Coding 3
Расширение режима : CM (complete main)
Параметр Endianness формата : Big
Идентификатор кодека : A_AC3
Продолжительность : 2 ч. 33 м.
Вид битрейта : Постоянный
Битрейт : 448 Кбит/сек
Каналы : 6 каналов
Расположение каналов : Front: L C R, Side: L R, LFE
Частота : 48,0 КГц
Битовая глубина : 16 бит
Метод сжатия : С потерями
Размер потока : 491 Мбайт (16%)
Заголовок : Dub (CEE)
Язык : Russian
Default : Да
Forced : Нет

Аудио #2
Идентификатор : 3
Формат : AC-3
Формат/Информация : Audio Coding 3
Расширение режима : CM (complete main)
Параметр Endianness формата : Big
Идентификатор кодека : A_AC3
Продолжительность : 2 ч. 33 м.
Вид битрейта : Постоянный
Битрейт : 448 Кбит/сек
Каналы : 6 каналов
Расположение каналов : Front: L C R, Side: L R, LFE
Частота : 48,0 КГц
Битовая глубина : 16 бит
Метод сжатия : С потерями
Размер потока : 491 Мбайт (16%)
Заголовок : Original (English)
Язык : English
Default : Нет
Forced : Нет

Текст #1
Идентификатор : 4
Формат : UTF-8
Идентификатор кодека : S_TEXT/UTF8
Идентификатор кодека/Информация : UTF-8 Plain Text
Заголовок : Russian (full CEE)
Язык : Russian
Default : Нет
Forced : Нет

Текст #2
Идентификатор : 5
Формат : UTF-8
Идентификатор кодека : S_TEXT/UTF8
Идентификатор кодека/Информация : UTF-8 Plain Text
Заголовок : English (full)
Язык : English
Default : Нет
Forced : Нет





_________________
Проголосуй за трекер Открытый торрент трекер - RUS-MEDIA.ORG

Проголосуй Открытый торрент трекер - RUS-MEDIA.ORG


Вернуться к началу
 Профиль Отправить личное сообщение  
 
   Похожие торренты   Автор   Торрент   Размер 
В этой теме нет новых непрочитанных сообщений. Бэтмен: Начало / Batman Begins [боевик, приключения, фантастика, драма, 2005] BDRip-AVC, Dub+Sub

salma3

63 | 12

1.46 ГБ

В этой теме нет новых непрочитанных сообщений. Бэтмен: Начало / Batman Begins [боевик, триллер, драма, криминал, 2005] BDRip 1080p, Dub+Sub [лицензия]

salma3

64 | 10

7.76 ГБ

В этой теме нет новых непрочитанных сообщений. Бэтмен: Начало / Batman Begins [Фэнтези, боевик, драма, 2005] BDRemux 1080p, Dub

salma3

0 | 0

30.88 ГБ

В этой теме нет новых непрочитанных сообщений. Бэтмен: Начало / Batman Begins [Фэнтези, боевик, драма, 2005] BDRemux 2160p, Dub [4K]

salma3

0 | 0

68.43 ГБ

В этой теме нет новых непрочитанных сообщений. Бэтмен / Batman [фантастика, боевик, триллер, 1989] BDRip, Dub

salma3

0 | 0

2.18 ГБ

В этой теме нет новых непрочитанных сообщений. Бэтмен / Batman [фантастика, боевик, триллер, 1989] BDRip, Mvo [СТС]

salma3

0 | 0

1.45 ГБ

В этой теме нет новых непрочитанных сообщений. Бэтмен против Супермена: На заре справедливости / Batman v Superman: Dawn of Justice [фантастика, боевик, приключения, 2016] DVD5, Dub+Sub

salma3

28 | 14

4.37 ГБ


Начать новую тему Ответить на тему  [ 1 сообщение ] 




Для Мосгорсуда, Роскомнадзора и рекламодателей:: mosgorsud-torrent[собачка]yandex.ru
cron