Торрент файл
скачать торрент магнет ссылка Добавлен: 01 фев 2017, 14:59
Размер: 3.78 ГБ
Сидеров: 89
Личеров: 49
Статус: (salma3)
Автор

СообщениеДобавлено: 01 фев 2017, 14:59 

Не в сети
Супермодератор
Аватара пользователя
Дата регистрации:
15 фев 2012, 16:44
Возраст: 29
Спасибо: 7428 / 2147
Сообщения: 80047
Год выхода: 1999
Жанр: Комедия
Режиссер: Доменико Саверни

В ролях: Паоло Вилладжо, Милена Вукотич, Анна Маццамауро, аоло Паолони, Доди Конти, Стефано Маскиарелли, Мирта Пепе, Ирма Капече Минутоло, Альдо Ралли, Эвелина Гори, Ленка Ланчи, Гуидо Никели, Серджо Форкони, Клаудио Риччи, Лоренцо Виззини, Якопо Сарно, Симоне Аскани, Клаудио Альфонси, Стефано Антонуччи, Алессандро Бенчивенни, Алессандра Алберти, Джино Кольяндро, Лучана Де Фалько, Серена Дамиани, Массимилиано Делгадо, Джанни Фантони, Валерио Исидоре

О фильме:
Руководство Мега-Фирмы обеспокоено тем, что сотрудники совершенно выбились из-под контроля. Вдруг они вспоминают про самого услужливого и исполнительно работника — бухгалтера Уго Фантоцци. Они решают пригласить его снова на работу, но вот беда — он умер несколько лет назад. Но руководство компании это не останавливает. С помощью новейших технологий, используя волосы покойного бухгалтера, ученые создают клона, ничем не отличающегося от покойника. Фантоцци узнает свою жену, своего директора и со следующего же дня ревностно принимается исполнять свои служебные, обязанности. Но судьба готовит ему ряд за другим несколько сюрпризов — отдых в закрытом приюте для детей миллионеров, длительная эпопея с лотерейным билетом, чуть было не стоившая бухгалтеру семейного счастья, проблемы с внезапно приехавшей погостить к бабушке с дедушкой дорогой, но довольно таки взрослой внучкой, неожиданное приглашение на новогодний банкет к графине и даже встреча с инопланетянином...



Страна: Италия
Продолжительность: 01:33:48
Перевод: Профессиональный [многоголосый, профессиональный] одноголосый

Файл
Кодек: h.264
Качество: DVDRip
Видео: MPEG-4 AVC, 720x440, 5000 Кбит/с, 25.000 кадр/с
Звук:
Аудио #1: Русский ( AC3, 2ch, 256 Кбит/с, 48.0 KHz) Профессиональный многоголосый (100ТВ)
Аудио #2: Русский ( AC3, 2ch, 256 Кбит/с, 48.0 KHz) Профессиональный одноголосый (закадровый)
Аудио #3: Итальянский ( AC3, 2ch, 256 Кбит/с, 48.0 KHz)
Семпл

General
Unique ID : 239347334868076730256011904298824658152 (0xB4109EB3F0B6595DA09077F5B2FE6CE8)
Complete name : Fantozzi.2000-La.Clonazione.1999.DVDRip-AVC.mkv
Format : Matroska
Format version : Version 4 / Version 2
File size : 3.78 GiB
Duration : 1 h 33 min
Overall bit rate : 5 771 kb/s
Encoded date : UTC 2017-02-01 09:52:12
Writing application : mkvmerge v7.8.0 ('River Man') 64bit built on Mar 27 2015 16:31:37
Writing library : libebml v1.3.1 + libmatroska v1.4.2
Cover : Yes
Attachments : cover.jpg

Video
ID : 1
Format : AVC
Format/Info : Advanced Video Codec
Format profile : High@L4.1
Format settings, CABAC : Yes
Format settings, ReFrames : 12 frames
Codec ID : V_MPEG4/ISO/AVC
Duration : 1 h 33 min
Bit rate : 5 000 kb/s
Width : 720 pixels
Height : 440 pixels
Display aspect ratio : 16:10
Frame rate mode : Constant
Frame rate : 25.000 FPS
Color space : YUV
Chroma subsampling : 4:2:0
Bit depth : 8 bits
Scan type : Progressive
Bits/(Pixel*Frame) : 0.631
Stream size : 3.28 GiB (87%)
Title : Video
Writing library : x264 core 146 r2538 121396c
Encoding settings : cabac=1 / ref=12 / deblock=1:-3:-3 / analyse=0x3:0x113 / me=umh / subme=11 / psy=1 / psy_rd=1.00:0.00 / mixed_ref=1 / me_range=32 / chroma_me=1 / trellis=2 / 8x8dct=1 / cqm=0 / deadzone=21,11 / fast_pskip=1 / chroma_qp_offset=-2 / threads=6 / lookahead_threads=1 / sliced_threads=0 / nr=0 / decimate=1 / interlaced=0 / bluray_compat=0 / constrained_intra=0 / bframes=12 / b_pyramid=2 / b_adapt=2 / b_bias=0 / direct=3 / weightb=1 / open_gop=0 / weightp=2 / keyint=250 / keyint_min=23 / scenecut=40 / intra_refresh=0 / rc_lookahead=70 / rc=2pass / mbtree=1 / bitrate=5000 / ratetol=1.0 / qcomp=0.60 / qpmin=0 / qpmax=69 / qpstep=4 / cplxblur=20.0 / qblur=0.5 / ip_ratio=1.40 / aq=1:1.00
Language : Italian
Default : Yes
Forced : No

Audio #1
ID : 2
Format : AC-3
Format/Info : Audio Coding 3
Mode extension : CM (complete main)
Format settings, Endianness : Big
Codec ID : A_AC3
Duration : 1 h 33 min
Bit rate mode : Constant
Bit rate : 256 kb/s
Channel(s) : 2 channels
Channel positions : Front: L R
Sampling rate : 48.0 kHz
Frame rate : 31.250 FPS (1536 spf)
Bit depth : 16 bits
Compression mode : Lossy
Stream size : 172 MiB (4%)
Title : Профессиональный многоголосый (100ТВ)
Language : Russian
Default : Yes
Forced : No

Audio #2
ID : 3
Format : AC-3
Format/Info : Audio Coding 3
Mode extension : CM (complete main)
Format settings, Endianness : Big
Codec ID : A_AC3
Duration : 1 h 33 min
Bit rate mode : Constant
Bit rate : 256 kb/s
Channel(s) : 2 channels
Channel positions : Front: L R
Sampling rate : 48.0 kHz
Frame rate : 31.250 FPS (1536 spf)
Bit depth : 16 bits
Compression mode : Lossy
Stream size : 172 MiB (4%)
Title : Профессиональный одноголосый (закадровый)
Language : Russian
Default : No
Forced : No

Audio #3
ID : 4
Format : AC-3
Format/Info : Audio Coding 3
Mode extension : CM (complete main)
Format settings, Endianness : Big
Codec ID : A_AC3
Duration : 1 h 33 min
Bit rate mode : Constant
Bit rate : 256 kb/s
Channel(s) : 2 channels
Channel positions : Front: L R
Sampling rate : 48.0 kHz
Frame rate : 31.250 FPS (1536 spf)
Bit depth : 16 bits
Compression mode : Lossy
Stream size : 172 MiB (4%)
Language : Italian
Default : No
Forced : No


_________________
Проголосуй за трекер Открытый торрент трекер - RUS-MEDIA.ORG

Проголосуй Открытый торрент трекер - RUS-MEDIA.ORG


Вернуться к началу
 Профиль Отправить личное сообщение  
 
   Похожие торренты   Автор   Торрент   Размер 
В этой теме нет новых непрочитанных сообщений. Фантоцци / Fantozzi [Комедия, 1975] DVDRip-AVC, Mvo

salma3

188 | 40

3.54 ГБ

В этой теме нет новых непрочитанных сообщений. Фантоцци в раю / Fantozzi in paradiso [Комедия, 1993] DVDRip-AVC, Mvo

salma3

124 | 26

3.07 ГБ

В этой теме нет новых непрочитанных сообщений. Возвращение Фантоцци / Fantozzi - Il ritorno [Комедия, 1996] DVDRip-AVC, Mvo

salma3

61 | 10

3.1 ГБ

В этой теме нет новых непрочитанных сообщений. Фантоцци уходит на пенсию / Fantozzi va in pensione [Комедия, 1988] DVDRip-AVC, Mvo

salma3

113 | 69

3.64 ГБ

В этой теме нет новых непрочитанных сообщений. Фантоцци берет реванш / Fantozzi alla riscossa [Комедия, 1990] DVDRip-AVC, Mvo

salma3

105 | 27

3.34 ГБ

В этой теме нет новых непрочитанных сообщений. Второй трагический Фантоцци / Il secondo tragico Fantozzi [Комедия, 1976] DVDRip-AVC, Mvo

salma3

138 | 31

3.68 ГБ

В этой теме нет новых непрочитанных сообщений. У Фантоцци опять неприятности / Fantozzi subisce ancora [Комедия, 1983] DVDRip-AVC, Mvo

salma3

109 | 53

3.4 ГБ


Начать новую тему Ответить на тему  [ 1 сообщение ] 




Для Мосгорсуда, Роскомнадзора и рекламодателей:: mosgorsud-torrent[собачка]yandex.ru
cron