Торрент файл
скачать торрент магнет ссылка Добавлен: 02 фев 2017, 13:06
Размер: 2.18 ГБ
Сидеров: 48
Личеров: 12
Статус: (salma3)
Автор

СообщениеДобавлено: 02 фев 2017, 13:06 

Не в сети
Супермодератор
Аватара пользователя
Дата регистрации:
15 фев 2012, 16:44
Возраст: 29
Спасибо: 7400 / 2147
Сообщения: 78259
Год выхода: 2002
Жанр: триллер, драма, криминал
Режиссер: Джон Малкович

В ролях: Хавьер Бардем, Хуан Диего Ботто, Лаура Моранте, Эльвира Мингез, Александра Ленкастре, Оливер Коттон, Луис Мигель Синтра, Хавьер Манрике, Абель Фолк, Мэри-Энн Берганза

О фильме:
Офицер полиции Аугустин Рехас пытается выйти на след лидера подпольной марксистской группировки Эзекила. Эти поиски, которые он ведет уже 12 лет, приводят Рехаса к встрече с Иоландой, учительницей танцев, которая изменяет всю его жизнь…



Страна: Испания, США
Продолжительность: 02:13:09
Перевод: Профессиональный [Многоголосый, закадровый] [CP Digital]

Файл
Формат: MKV
Качество: WEB-DLRip-AVC
Видео: 1024x576 at 23,976 fps, High@L4.1, ~1897 kbps
Аудио: 48 kHz, AC3, 3/2 (L,C,R,l,r) + LFE ch, ~ 448.00 kbps
Субтитры: Russian, English


General
Unique ID : 43130238813242769028372193152967288375 (0x207294F3B8C885E85FCF6355E602A637)
Complete name : D:КИНОТанцующая наверху.(2002).WEB-DLRIP-AVC.[-=DoMiNo=-].mkv
Format : Matroska
Format version : Version 4 / Version 2
File size : 2.18 GiB
Duration : 2 h 13 min
Overall bit rate : 2 349 kb/s
Movie name : Танцующая наверху
Deion : Офицер полиции Аугустин Рехас пытается выйти на след лидера подпольной марксистской группировки Эзекила.Эти поиски, которые он ведет уже 12 лет, приводят Рехаса к встрече с Иоландой, учительницей танцев, которая изменяет всю его жизнь…
Writing application : XviD4PSP 7.0.349 DAILY
Writing library : Lavf57.41.100 / Lavf57.41.100
Attachments : poster.jpg
ACTORS : Хавьер Бардем, Хуан Диего Ботто, Лаура Моранте, Эльвира Мингес, Алешандра Ленкастре, Оливер Коттон, Луиш Мигель Синтра, Хавьер Манрике, Абель Фольк, Мари-Анн Берганза, Лукас Родригез, Шавьер Элоррьяга, Наталия Дисента, Вольфрамио Синуэ, Рамиро Джименез, Монтсеррат Астудильо, Гало Урбина, Jairon Flores, Лам Чен, Хосе Антонио Исагирре, Исабель Принс, Игнасио Карреньо, Benjamas Boonnak, Тито Гарсия, Вероника Ноубоа, Луис Гаспар, Стив Эмерсон, Карлос Каррильо, Эусебио Ласаро, Полина Агиляр, Эстебан Салазар, Герман Нуньес, Pachacutic Chugchilan, Хуан Карлос Вельидо, Диего Нараньо, Монтсеррат Иглесиас, Celina Casari, Марибель Ривера, Игнасио Дуран, Фрида Торресбланко, Ана Лозаньо, Лола Пено, Хавьер Паэс, Дэвид Агиляр, Рэкуэл Роча, Алексис Родригез, Дэниэл Агиляр, Юсаф Бохари, Natalia Tarnawiecki, Carlos Thiebaut, Nuevo Repertorio, Вивиан Агеро, Нур Аль Леви, Йоана Кобо, Ольга Диас, Алисия Гарригес, Рикардо Лопес, Джоана Лурейро, Джон Малкович, Девон Уокер
COMPOSER : Альберто Иглесиас
COUNTRY : Испания, США
DATE : 2002
DIRECTOR : Джон Малкович
ENCODING_INFO : MATROSKA,WEBM > MKV / H264 > X264 VBR-2P 1897kbps Произвольный / AC3 > COPY
GENRE : триллер, драма, криминал
HD_VIDEO : 1
IMDB_RATING : 7.00
ITUNEXTC : mpaa|R|400|
MEDIA_TYPE : 9
ORIGINAL_ACTORS : Javier Bardem, Juan Diego Botto, Laura Morante, Elvira Mínguez, Alexandra Lencastre, Oliver Cotton, Luís Miguel Cintra, Javier Manrique, Abel Folk, Marie-Anne Berganza, Lucas Rodríguez, Xabier Elorriaga, Natalia Dicenta, Wolframio Sinué, Ramiro Jiménez, Montserrat Astudillo, Galo Urbina, Lam Chuen, José Antonio Izaguirre, Isabel Prinz, Ignacio Carreño, Tito García, Veronica Noboa (в титрах: Verónica Noboa), Luis Gaspar, Steve Emerson, Carlos Carrillo, Eusebio Lázaro, Paulina Aguilar, Esteban Salazar, German Nuñez (в титрах: German Núñez), Juan Carlos Vellido, Diego Naranjo, Montserrat Iglesias, Maribel Rivera, Ignacio Durán, Frida Torresblanco, Ana Lozano, Lola Peno, Javier Páez, David Aguilar, Raquel Rocha, Alexis Rodrigues, Daniel Aguilar, Yousaf Bokhari, Vivian Agüero, Nur Al Levi, Yohana Cobo, Olga Dias, Alicia Garrigues, Ricardo Lopes, Joana Loureiro, John Malkovich, Devon Walker
ORIGINAL_TITLE : The Dancer Upstairs
PRODUCER : Андрес Висенте Гомес, Джон Малкович, Юсаф Бохари, Лайан Халфон, Надин Луке, Расселл Смит
RATING : 6.624…
WRITER : Николас Шекспир

Video
ID : 1
Format : AVC
Format/Info : Advanced Video Codec
Format profile : High@L4.1
Format settings, CABAC : Yes
Format settings, ReFrames : 12 frames
Codec ID : V_MPEG4/ISO/AVC
Duration : 2 h 13 min
Bit rate : 1 897 kb/s
Width : 1 024 pixels
Height : 576 pixels
Display aspect ratio : 16:9
Frame rate mode : Constant
Frame rate : 23.976 (24000/1001) FPS
Color space : YUV
Chroma subsampling : 4:2:0
Bit depth : 8 bits
Scan type : Progressive
Bits/(Pixel*Frame) : 0.134
Stream size : 1.72 GiB (79%)
Title : RIP_BY_-=DoMiNo=-
Writing library : x264 core 148 r2762M 90a61ec
Encoding settings : cabac=1 / ref=12 / deblock=1:-3:-3 / analyse=0x3:0x133 / me=umh / subme=11 / psy=1 / psy_rd=1.00:0.10 / mixed_ref=1 / me_range=48 / chroma_me=1 / trellis=2 / 8x8dct=1 / cqm=0 / deadzone=21,11 / fast_pskip=0 / chroma_qp_offset=-3 / threads=5 / lookahead_threads=1 / sliced_threads=0 / nr=0 / decimate=1 / interlaced=0 / bluray_compat=0 / constrained_intra=0 / bframes=11 / b_pyramid=2 / b_adapt=2 / b_bias=0 / direct=3 / weightb=1 / open_gop=0 / weightp=2 / keyint=230 / keyint_min=23 / scenecut=40 / intra_refresh=0 / rc=2pass / mbtree=0 / bitrate=1897 / ratetol=1.0 / qcomp=0.60 / qpmin=0 / qpmax=69 / qpstep=4 / cplxblur=20.0 / qblur=0.5 / ip_ratio=1.40 / pb_ratio=1.30 / aq=1:1.00
Language : English
Default : Yes
Forced : No
Color range : Limited
Color primaries : BT.709
Transfer characteristics : BT.709
Matrix coefficients : BT.709
DURATION : 02:13:08.564000000

Audio
ID : 2
Format : AC-3
Format/Info : Audio Coding 3
Mode extension : CM (complete main)
Format settings, Endianness : Big
Codec ID : A_AC3
Duration : 2 h 13 min
Bit rate mode : Constant
Bit rate : 448 kb/s
Channel(s) : 6 channels
Channel positions : Front: L C R, Side: L R, LFE
Sampling rate : 48.0 kHz
Frame rate : 31.250 FPS (1536 spf)
Bit depth : 16 bits
Compression mode : Lossy
Stream size : 427 MiB (19%)
Title : MVO
Language : Russian
Default : Yes
Forced : No
DURATION : 02:13:08.640000000

Text #1
ID : 3
Format : UTF-8
Codec ID : S_TEXT/UTF8
Codec ID/Info : UTF-8 Plain Text
Title : RUS
Language : Russian
Default : Yes
Forced : No
DURATION : 02:05:31.773000000

Text #2
ID : 4
Format : UTF-8
Codec ID : S_TEXT/UTF8
Codec ID/Info : UTF-8 Plain Text
Title : ENG
Language : English
Default : No
Forced : No
DURATION : 02:05:31.617000000

Menu
00:00:00.000 : :Глава 1
00:10:22.622 : :Глава 2
00:21:47.305 : :Глава 3
00:33:58.036 : :Глава 4
00:44:38.452 : :Глава 5
00:57:51.468 : :Глава 6
01:10:50.246 : :Глава 7
01:23:49.024 : :Глава 8
01:34:27.661 : :Глава 9
01:45:53.538 : :Глава 10
01:55:44.938 : :Глава 11
02:04:33.466 : :Глава 12


_________________
Проголосуй за трекер Открытый торрент трекер - RUS-MEDIA.ORG

Проголосуй Открытый торрент трекер - RUS-MEDIA.ORG


Вернуться к началу
 Профиль Отправить личное сообщение  
 
   Похожие торренты   Автор   Торрент   Размер 
В этой теме нет новых непрочитанных сообщений. Танцующая наверху / The Dancer Upstairs [триллер, драма, криминал, 2002] WEB-DLRip, Mvo

salma3

33 | 15

2.18 ГБ

В этой теме нет новых непрочитанных сообщений. Танцующая наверху / The Dancer Upstairs [триллер, драма, криминал, 2002] WEB-DL 1080p, Mvo+Sub

salma3

76 | 35

10.01 ГБ

В этой теме нет новых непрочитанных сообщений. Танцующая наверху / The Dancer Upstairs [Драма, 2002] WEB-DLRip 720р, Mvo

salma3

9 | 4

5.3 ГБ

В этой теме нет новых непрочитанных сообщений. До свидания там, наверху / Au revoir lа-haut [драма, криминал, 2017] HDRip, Dub [Tunes]

salma3

649 | 207

2.05 ГБ

В этой теме нет новых непрочитанных сообщений. Комната страха / Panic Room [триллер, драма, криминал, 2002] WEB-DLRip, Dub

salma3

0 | 0

1.47 ГБ

В этой теме нет новых непрочитанных сообщений. Комната страха / Panic Room [триллер, драма, криминал, 2002] WEB-DLRip-AVC, Dub

salma3

14 | 11

744.62 МБ

В этой теме нет новых непрочитанных сообщений. До свидания там, наверху / Au revoir lа-haut [драма, криминал, 2017] BDRip 1080p, Dub [Tunes]

salma3

105 | 109

9.16 ГБ


Начать новую тему Ответить на тему  [ 1 сообщение ] 




Для Мосгорсуда, Роскомнадзора и рекламодателей:: mosgorsud-torrent[собачка]yandex.ru
cron