Торрент файл
скачать торрент магнет ссылка Добавлен: 08 фев 2017, 14:03
Размер: 2.82 ГБ
Сидеров: 162
Личеров: 25
Статус: (salma3)
Автор

СообщениеДобавлено: 08 фев 2017, 14:03 

Не в сети
Супермодератор
Аватара пользователя
Дата регистрации:
15 фев 2012, 16:44
Возраст: 29
Спасибо: 7393 / 2147
Сообщения: 78044
Год выпуска: 2016
Жанр: фантастика, боевик, приключения
Режиссер: Энтони Руссо, Джо Руссо

В ролях: Крис Эванс, Роберт Дауни мл., Скарлетт Йоханссон, Себастьян Стэн, Энтони Маки, Дон Чидл, Джереми Реннер, Чэдвик Боузмэн, Пол Беттани, Элизабет Олсен

Описание: Мстители под руководством Капитана Америки оказываются участниками разрушительного инцидента, имеющего международный масштаб. Эти события заставляют правительство задуматься над тем, чтобы начать регулировать действия всех людей с особыми способностями, введя «Акт о регистрации супергероев», вынуждая их подчиняться ООН.
Видя в этом договоре нарушение гражданских прав и плевок на всё, во что он верит, Стив Роджерс открыто восстаёт против нового режима, ведя за собой группу героев, поддерживающих его мнение. В свою очередь, Тони Старк видит смысл в новом договоре и становится во главе героев, поддерживающих его. Всё это приводит к неизбежному расколу Мстителей и войне между сторонами. Сражаясь друг с другом, Старк и Роджерс не знают о том, что таинственный Барон Земо уже строит свои собственные планы, воспользовавшись расколом величайших героев Земли.



Страна: США
Продолжительность: 02:27:41
Перевод: Профессиональный (полное дублирование)[iTunes]

Формат: BDRip-AVC
Видео: 1032x432 (2.40:1), 23.976 fps, AVC MPEG-4 (H.264), ~1921 kbps, 0.180 bit/pixel
Аудио1: Русский: 48 kHz, AC3 Dolby Digital, 3/2 (L,C,R,l,r) + LFE ch, ~384 kbps
Аудио2: Английский: 48 kHz, AC3 Dolby Digital, 3/2 (L,C,R,l,r) + LFE ch, ~448 kbps

General
Unique ID : 247959735254722150078295254405121254492 (0xBA8B4ED361E7A3CCA4DB3A10A3D7245C)
Format : Matroska
Format version : Version 4 / Version 2
File size : 2.82 GiB
Duration : 2 h 27 min
Overall bit rate : 2 830 kb/s
Encoded date : UTC 2016-08-31 07:15:54
Writing application : mkvmerge v8.9.0 ('Father Daughter') 64bit
Writing library : libebml v1.3.3 + libmatroska v1.4.4

Video
ID : 1
Format : AVC
Format/Info : Advanced Video Codec
Format profile :
Format settings, CABAC : Yes
Format settings, ReFrames : 11 frames
Codec ID : V_MPEG4/ISO/AVC
Duration : 2 h 27 min
Bit rate : 1 921 kb/s
Width : 1 032 pixels
Height : 432 pixels
Display aspect ratio : 2.40:1
Frame rate mode : Constant
Frame rate : 23.976 (23976/1000) FPS
Color space : YUV
Chroma subsampling : 4:2:0
Bit depth : 8 bits
Scan type : Progressive
Bits/(Pixel*Frame) : 0.180
Stream size : 2.06 GiB (71%)
Writing library : x264 core 146 r2538 121396c
Encoding settings : cabac=1 / ref=11 / deblock=1:-3:-3 / analyse=0x3:0x113 / me=umh / subme=11 / psy=1 / psy_rd=1.00:0.00 / mixed_ref=1 / me_range=48 / chroma_me=1 / trellis=2 / 8x8dct=1 / cqm=0 / deadzone=21,11 / fast_pskip=0 / chroma_qp_offset=-2 / threads=12 / lookahead_threads=3 / sliced_threads=0 / nr=0 / decimate=0 / interlaced=0 / bluray_compat=0 / constrained_intra=0 / bframes=12 / b_pyramid=2 / b_adapt=2 / b_bias=0 / direct=3 / weightb=1 / open_gop=0 / weightp=2 / keyint=240 / keyint_min=23 / scenecut=40 / intra_refresh=0 / rc_lookahead=40 / rc=2pass / mbtree=1 / bitrate=1921 / ratetol=1.0 / qcomp=0.60 / qpmin=0 / qpmax=69 / qpstep=4 / cplxblur=20.0 / qblur=0.5 / vbv_maxrate=14000 / vbv_bufsize=14000 / nal_hrd=none / filler=0 / ip_ratio=1.40 / aq=1:1.00
Language : English
Default : Yes
Forced : No

Audio #1
ID : 2
Format : AC-3
Format/Info : Audio Coding 3
Mode extension : CM (complete main)
Format settings, Endianness : Big
Codec ID : A_AC3
Duration : 2 h 27 min
Bit rate mode : Constant
Bit rate : 384 kb/s
Channel(s) : 6 channels
Channel positions : Front: L C R, Side: L R, LFE
Sampling rate : 48.0 kHz
Frame rate : 31.250 FPS (1536 spf)
Compression mode : Lossy
Delay relative to video : 800 ms
Stream size : 406 MiB (14%)
Language : Russian
Default : Yes
Forced : No

Audio #2
ID : 3
Format : AC-3
Format/Info : Audio Coding 3
Mode extension : CM (complete main)
Format settings, Endianness : Big
Codec ID : A_AC3
Duration : 2 h 27 min
Bit rate mode : Constant
Bit rate : 448 kb/s
Channel(s) : 6 channels
Channel positions : Front: L C R, Side: L R, LFE
Sampling rate : 48.0 kHz
Frame rate : 31.250 FPS (1536 spf)
Compression mode : Lossy
Stream size : 473 MiB (16%)
Language : English
Default : No
Forced : No

Text #1
ID : 4
Format : UTF-8
Codec ID : S_TEXT/UTF8
Codec ID/Info : UTF-8 Plain Text
Duration : 2 h 26 min
Bit rate : 86 b/s
Count of elements : 1512
Stream size : 92.8 KiB (0%)
Title : full
Language : Russian
Default : Yes
Forced : No

Text #2
ID : 5
Format : UTF-8
Codec ID : S_TEXT/UTF8
Codec ID/Info : UTF-8 Plain Text
Duration : 2 h 25 min
Bit rate : 50 b/s
Count of elements : 1865
Stream size : 54.2 KiB (0%)
Title : Full
Language : English
Default : No
Forced : No

Text #3
ID : 6
Format : UTF-8
Codec ID : S_TEXT/UTF8
Codec ID/Info : UTF-8 Plain Text
Duration : 2 h 26 min
Bit rate : 55 b/s
Count of elements : 2105
Stream size : 59.1 KiB (0%)
Title : SDH
Language : English
Default : No
Forced : No





_________________
Проголосуй за трекер Открытый торрент трекер - RUS-MEDIA.ORG

Проголосуй Открытый торрент трекер - RUS-MEDIA.ORG


Вернуться к началу
 Профиль Отправить личное сообщение  
 
   Похожие торренты   Автор   Торрент   Размер 
В этой теме нет новых непрочитанных сообщений. Первый мститель: Противостояние / Captain America: Civil War [фантастика, боевик, приключения, 2016] BDRip-AVC, Dub

salma3

31 | 18

2.18 ГБ

В этой теме нет новых непрочитанных сообщений. Первый мститель: Противостояние / Captain America: Civil War [Фантастика, боевик, триллер, приключения, 2016] BDRip, Mvo [FocusStudio]

salma3

0 | 1

2.18 ГБ

В этой теме нет новых непрочитанных сообщений. Первый мститель: Противостояние / Captain America: Civil War [Фантастика, боевик, приключения, 2016] BDRip 720p, Mvo [FocusStudio]

salma3

0 | 0

7.87 ГБ

В этой теме нет новых непрочитанных сообщений. Первый мститель: Противостояние / Captain America: Civil War [фантастика, боевик, приключения, 2016] BDRip 720p, Dub [чистый звук]

salma3

88 | 5

7.01 ГБ

В этой теме нет новых непрочитанных сообщений. Первый мститель: Противостояние / Captain America: Civil War [Фантастика, Боевик, Приключения, 2016] BDRip 1080p, Dub [3D-Video] [iTunes]

salma3

53 | 13

10.54 ГБ

В этой теме нет новых непрочитанных сообщений. Первый мститель: Противостояние / Captain America: Civil War [фантастика, боевик, триллер, приключения, 2016] BDRip 720p, Dub [iTunes]

marya111

2 | 4

6.05 ГБ

В этой теме нет новых непрочитанных сообщений. Первый мститель: Противостояние / Captain America: Civil War [фантастика, боевик, приключения, 2016] BDRip 1080p, Dub [чистый звук]

salma3

886 | 15

11.07 ГБ


Начать новую тему Ответить на тему  [ 1 сообщение ] 




Для Мосгорсуда, Роскомнадзора и рекламодателей:: mosgorsud-torrent[собачка]yandex.ru
cron