Торрент файл
скачать торрент магнет ссылка Добавлен: 09 фев 2017, 14:16
Размер: 403.83 МБ
Сидеров: 150
Личеров: 31
Статус: (salma3)
Автор

СообщениеДобавлено: 09 фев 2017, 14:16 

Не в сети
Супермодератор
Аватара пользователя
Дата регистрации:
15 фев 2012, 16:44
Возраст: 29
Спасибо: 7401 / 2147
Сообщения: 78470
Страна: Италия
Производство: Lords of Illusion
Год выпуска: 2013
Жанр: короткометражка, фантастика
Продолжительность: 00:19:23

Режиссер: Анджело Ликата
Автор сценария: Анджело Ликата

В ролях: Винченцо Альфьери, Елена Куччи, Франческа Гандольфо, Фабрицио Феннер

Описание: Кое-что страшное произойдёт с Землей. Люк и Сара, не сознающие опасность, были лишь взволнованы по поводу страстного спонтанного уик-энда. Два неожиданных гостя нарушают их планы...



Перевод: Любительский (двухголосый, закадровый) | DeeAFilm Studio
Субтитры: нет


Качество: WEB-DLRip-AVC
Формат: МКV
Видео кодек: AVC
Аудио кодек: AAC
Видео: 1152x648 (16:9), 25.000 fps, MPEG-4 AVC ~2 555 kbps avg
Аудио №1: 48.0 kHz, Advanced Audio Codec LC, 2/0 (L,R) ch, ~163 kbps | RUS
Аудио №2: 48.0 kHz, Advanced Audio Codec LC, 2/0 (L,R) ch, ~192 kbps | ENG




General
Уникальный идентификатор : 225802391186854292948942109760916768835 (0xA9DFF56B67588303AC6C02F339AF4843)
Полное имя : Closer.2013.WEB-DLRip-AVC.mkv
Формат : Matroska
Версия формата : Version 4 / Version 2
Размер файла : 404 Мбайт
Продолжительность : 19 м.
Общий поток : 2910 Кбит/сек
Название фильма : Closer.2013.WEB-DLRip-AVC -Azureus-
Дата кодирования : UTC 2017-02-02 07:39:55
Программа кодирования : mkvmerge v9.4.0 ('Knurl') 64bit
Библиотека кодирования : libebml v1.3.4 + libmatroska v1.4.5

Видео
Идентификатор : 1
Формат : AVC
Формат/Информация : Advanced Video Codec
Профиль формата : High@L4.1
Параметр CABAC формата : Да
Параметр ReFrames формата : 9 кадров
Идентификатор кодека : V_MPEG4/ISO/AVC
Продолжительность : 19 м.
Битрейт : 2555 Кбит/сек
Ширина : 1152 пикселя
Высота : 648 пикселей
Соотношение сторон : 16:9
Режим частоты кадров : Постоянный
Частота кадров : 25,000 кадров/сек
Цветовое пространство : YUV
Субдискретизация насыщенности : 4:2:0
Битовая глубина : 8 бит
Тип развёртки : Прогрессивная
Бит/(Пиксели*Кадры) : 0.137
Размер потока : 354 Мбайт (88%)
Библиотека кодирования : x264 core 148 r2744kMod b97ae06
Настройки программы : cabac=1 / ref=9 / deblock=1:-2:-1 / analyse=0x3:0x133 / me=umh / subme=11 / psy=1 / fade_compensate=0.00 / psy_rd=0.60:0.00 / mixed_ref=1 / me_range=32 / chroma_me=1 / trellis=2 / 8x8dct=1 / cqm=0 / deadzone=21,11 / fast_pskip=0 / chroma_qp_offset=-2 / threads=6 / lookahead_threads=1 / sliced_threads=0 / nr=0 / decimate=1 / interlaced=0 / bluray_compat=0 / constrained_intra=0 / bframes=16 / b_pyramid=2 / b_adapt=2 / b_bias=0 / direct=3 / weightb=1 / open_gop=0 / weightp=2 / keyint=250 / keyint_min=25 / scenecut=40 / intra_refresh=0 / rc_lookahead=70 / rc=crf / mbtree=0 / crf=18.0000 / qcomp=0.60 / qpmin=0 / qpmax=69 / qpstep=4 / vbv_maxrate=50000 / vbv_bufsize=62500 / crf_max=0.0 / nal_hrd=none / filler=0 / ip_ratio=1.40 / pb_ratio=1.30 / aq=3:1.00
Default : Да
Forced : Нет
Цветовой диапазон : Limited
Основные цвета : BT.709
Характеристики трансфера : BT.709
Коэффициенты матрицы : BT.709

Аудио #1
Идентификатор : 2
Формат : AAC
Формат/Информация : Advanced Audio Codec
Профиль формата : LC
Идентификатор кодека : A_AAC
Продолжительность : 19 м.
Битрейт : 163 Кбит/сек
Каналы : 2 канала
Расположение каналов : Front: L R
Частота : 48,0 КГц
Частота кадров : 46,875 кадров/сек (1024 spf)
Метод сжатия : С потерями
Задержка видео : 9 мс.
Размер потока : 22,6 Мбайт (6%)
Заголовок : DVO - DeeAFilm Studio
Язык : Russian
Default : Да
Forced : Нет

Аудио #2
Идентификатор : 3
Формат : AAC
Формат/Информация : Advanced Audio Codec
Профиль формата : LC
Идентификатор кодека : A_AAC
Продолжительность : 19 м.
Битрейт : 192 Кбит/сек
Каналы : 2 канала
Расположение каналов : Front: L R
Частота : 48,0 КГц
Частота кадров : 46,875 кадров/сек (1024 spf)
Метод сжатия : С потерями
Размер потока : 26,3 Мбайт (7%)
Заголовок : ENG
Язык : English
Default : Нет
Forced : Нет


_________________
Проголосуй за трекер Открытый торрент трекер - RUS-MEDIA.ORG

Проголосуй Открытый торрент трекер - RUS-MEDIA.ORG


Вернуться к началу
 Профиль Отправить личное сообщение  
 
   Похожие торренты   Автор   Торрент   Размер 
В этой теме нет новых непрочитанных сообщений. Контакт / Communion [ужасы, фантастика, триллер, драма, биография, 1989] WEB-DLRip, Mvo

salma3

2 | 1

1.46 ГБ

В этой теме нет новых непрочитанных сообщений. Всё ближе и ближе / Closer and Closer [триллер, 1996] WEB-DLRip 720р, Dvo

salma3

0 | 1

2.99 ГБ

В этой теме нет новых непрочитанных сообщений. Близкий дух / Pyewacket [Ужасы, триллер, 2017] WEB-DLRip, Dvo

salma3

143 | 49

1.36 ГБ

В этой теме нет новых непрочитанных сообщений. Код 8 / Code 8 (короткометражка, фантастика, боевик, криминал, 2016) WEB-DLRip-AVC | L2

marya111

635 | 37

231.68 МБ

В этой теме нет новых непрочитанных сообщений. Сингулярность / Singularity ( короткометражка, фантастика, боевик, 2015) WEB-DLRip-AVC | L2

marya111

405 | 25

196.5 МБ

В этой теме нет новых непрочитанных сообщений. Майор Гром (короткометражка, приключения, фантастика, драма, боевик, 2016) WEB-DLRip

marya111

292 | 29

444.73 МБ

В этой теме нет новых непрочитанных сообщений. Маша и медведь: Есть контакт! [65] [сказка, детский, семейный, 2017] WEB-DLRip

salma3

733 | 60

95.99 МБ


Начать новую тему Ответить на тему  [ 1 сообщение ] 




Для Мосгорсуда, Роскомнадзора и рекламодателей:: mosgorsud-torrent[собачка]yandex.ru
cron