Торрент файл
скачать торрент магнет ссылка Добавлен: 20 фев 2017, 13:18
Размер: 2.32 ГБ
Сидеров: 417
Личеров: 81
Статус: (salma3)
Автор

СообщениеДобавлено: 20 фев 2017, 13:18 

Не в сети
Супермодератор
Аватара пользователя
Дата регистрации:
15 фев 2012, 16:44
Возраст: 29
Спасибо: 7400 / 2147
Сообщения: 78216
Год выпуска: 2016
Жанр: драма, криминал
Режиссер: Юэн МакГрегор

В ролях: Юэн МакГрегор, Дженнифер Коннелли, Дакота Фаннинг, Питер Ригерт, Руперт Эванс, Узо Адуба, Молли Паркер, Вэлори Керри, Ханна Нордберг, Джулия Силверман

Описание:
Прекрасный гражданин, семьянин, трудолюбивый предприниматель, унаследовавший от отца небольшую фабрику, главный герой Сеймур — столп американского общества и наслаждается вместе со страной послевоенным процветанием. Но приходят 60-е и мир, который строил Сеймур, начинает рушиться, а самый болезненный удар наносит дочь, выбравшая путь политического террора.



Страна: США, Гонконг
Продолжительность:01:50:10
Перевод: Дублированный [iTunes]

Формат: BDRip-AVC
Видео: 1024x434 (2.35:1), 23,976 fps, MPEG4 AVC (х264) , ~ 2300 kbps avg, 0.216 bit/pixel
Аудио1: Русский: 48 kHz, AC3 Dolby Digital, 3/2 (L,C,R,l,r) + LFE ch, ~384 kbps avg
Аудио2: Английский: 48 kHz, AC3 Dolby Digital, 3/2 (L,C,R,l,r) + LFE ch, ~384 kbps avg

Общее
Уникальный идентификатор : 192061068568643088996999550639487255299 (0x907D9DC68A573D94AE5C1C97ACB70303)
Полное имя : E:Раздача-BDRipAmerikanskaya_Pastoral.2016.BDRip-AVC_FreeRutor.mkv
Формат : Matroska
Версия формата : Version 2
Размер файла : 2,32 Гбайт
Продолжительность : 1 ч. 48 м.
Общий поток : 3069 Кбит/сек
Название фильма : American Pastoral (2016) BDRip-AVC_FreeRutor_grab777
Дата кодирования : UTC 2017-02-20 01:47:06
Программа кодирования : mkvmerge v5.8.0 ('No Sleep / Pillow') built on Sep 2 2012 15:37:04
Библиотека кодирования : libebml v1.2.3 + libmatroska v1.3.0

Видео
Идентификатор : 1
Формат : AVC
Формат/Информация : Advanced Video Codec
Профиль формата :
Параметр CABAC формата : Да
Параметр ReFrames формата : 10 кадров
Идентификатор кодека : V_MPEG4/ISO/AVC
Продолжительность : 1 ч. 48 м.
Битрейт : 2300 Кбит/сек
Ширина : 1024 пикселя
Высота : 434 пикселя
Соотношение сторон : 2,35:1
Соотношение сторон в оригинале : 2,35:1
Режим частоты кадров : Постоянный
Частота кадров : 23,976 кадра/сек
Цветовое пространство : YUV
Субдискретизация насыщенности : 4:2:0
Битовая глубина : 8 бит
Тип развёртки : Прогрессивная
Бит/(Пиксели*Кадры) : 0.216
Размер потока : 1,69 Гбайт (73%)
Заголовок : Video_ Solod
Библиотека кодирования : x264 core 148
Настройки программы : cabac=1 / ref=10 / deblock=1:-2:-2 / analyse=0x3:0x113 / me=umh / subme=11 / psy=1 / psy_rd=1,15:0,20 / mixed_ref=1 / me_range=24 / chroma_me=1 / trellis=2 / 8x8dct=1 / cqm=0 / deadzone=21,11 / fast_pskip=1 / chroma_qp_offset=-3 / threads=6 / lookahead_threads=1 / sliced_threads=0 / nr=0 / decimate=1 / interlaced=0 / bluray_compat=0 / constrained_intra=0 / bframes=11 / b_pyramid=2 / b_adapt=1 / b_bias=0 / direct=1 / weightb=1 / open_gop=0 / weightp=2 / keyint=240 / keyint_min=24 / scenecut=40 / intra_refresh=0 / rc_lookahead=40 / rc=2pass / mbtree=1 / bitrate=2300 / ratetol=1,0 / qcomp=0,60 / qpmin=0 / qpmax=69 / qpstep=4 / cplxblur=20,0 / qblur=0,5 / vbv_maxrate=62500 / vbv_bufsize=78125 / nal_hrd=none / filler=0 / ip_ratio=1,40 / aq=1:1,00
Default : Да
Forced : Нет
Основные цвета : BT.709
Характеристики трансфера : BT.709
Коэффициенты матрицы : BT.709

Аудио #1
Идентификатор : 2
Формат : AC-3
Формат/Информация : Audio Coding 3
Расширение режима : CM (complete main)
Параметр Endianness формата : Big
Идентификатор кодека : A_AC3
Продолжительность : 1 ч. 48 м.
Вид битрейта : Постоянный
Битрейт : 384 Кбит/сек
Каналы : 6 каналов
Расположение каналов : Front: L C R, Side: L R, LFE
Частота : 48,0 КГц
Битовая глубина : 16 бит
Метод сжатия : С потерями
Размер потока : 297 Мбайт (13%)
Заголовок : DUB (iTunes)
Язык : Russian
Default : Да
Forced : Нет

Аудио #2
Идентификатор : 3
Формат : AC-3
Формат/Информация : Audio Coding 3
Расширение режима : CM (complete main)
Параметр Endianness формата : Big
Идентификатор кодека : A_AC3
Продолжительность : 1 ч. 48 м.
Вид битрейта : Постоянный
Битрейт : 384 Кбит/сек
Каналы : 6 каналов
Расположение каналов : Front: L C R, Side: L R, LFE
Частота : 48,0 КГц
Битовая глубина : 16 бит
Метод сжатия : С потерями
Размер потока : 297 Мбайт (13%)
Заголовок : Original
Язык : English
Default : Нет
Forced : Нет

Меню
00:00:00.000 : :Chapter 1
00:07:29.157 : :Chapter 2
00:11:13.923 : :Chapter 3
00:19:19.408 : :Chapter 4
00:25:58.932 : :Chapter 5
00:32:15.600 : :Chapter 6
00:38:52.163 : :Chapter 7
00:45:42.031 : :Chapter 8
00:52:51.251 : :Chapter 9
00:58:04.773 : :Chapter 10
01:05:01.106 : :Chapter 11
01:12:01.484 : :Chapter 12
01:17:35.234 : :Chapter 13
01:25:41.053 : :Chapter 14
01:32:39.012 : :Chapter 15
01:39:02.645 : :Chapter 16




_________________
Проголосуй за трекер Открытый торрент трекер - RUS-MEDIA.ORG

Проголосуй Открытый торрент трекер - RUS-MEDIA.ORG


Вернуться к началу
 Профиль Отправить личное сообщение  
 
   Похожие торренты   Автор   Торрент   Размер 
В этой теме нет новых непрочитанных сообщений. Американская пастораль / American Pastoral ( Драма, криминал, 2016) BDRip от MegaPeer | iTunes

marya111

363 | 50

1.41 ГБ

В этой теме нет новых непрочитанных сообщений. Американская пастораль / American Pastoral [драма, криминал, 2016] BDRip 720p, Dub+Sub [iTunes]

salma3

387 | 40

7.17 ГБ

В этой теме нет новых непрочитанных сообщений. Американская пастораль / American Pastoral [драма, криминал, 2016] BDRip 1080p, Dub+Sub [iTunes]

salma3

122 | 15

14.59 ГБ

В этой теме нет новых непрочитанных сообщений. Американская пастораль / American Pastoral [драма, криминал, 2016] HDRip, Dub [iTunes]

salma3

574 | 202

1.37 ГБ

В этой теме нет новых непрочитанных сообщений. Американская пастораль / American Pastoral [драма, криминал, 2016] HDRip, Dub [iTunes]

salma3

257 | 92

2.05 ГБ

В этой теме нет новых непрочитанных сообщений. Американская Мэри / American Mary [ужасы, драма, криминал, 2012] BDRip, Dvo

salma3

0 | 0

747.12 МБ

В этой теме нет новых непрочитанных сообщений. Американская жестокость / American Violence [триллер, драма, криминал, 2017] BDRip 1080p, Mvo

salma3

177 | 147

8.71 ГБ


Начать новую тему Ответить на тему  [ 1 сообщение ] 




Для Мосгорсуда, Роскомнадзора и рекламодателей:: mosgorsud-torrent[собачка]yandex.ru
cron